Торрент файл
скачать торрент магнет ссылка Добавлен: 14 дек 2012, 16:08
Размер: 460.89 МБ
Сидеров: 97
Личеров: 11
Автор

СообщениеДобавлено: 14 дек 2012, 16:08 

Не в сети
Супермодератор
Аватара пользователя
Дата регистрации:
15 фев 2012, 16:44
Возраст: 27
Спасибо: 5139 / 2090
Сообщения: 17432
Пес Барбос и необычный кросс. Самогонщики
Страна: СССР
Год выпуска: 1961
Студия: Мосфильм
Жанр:комедия
Продолжительность: 00:10:04 + 00:18:12
Перевод: не требуется
Оригинальная аудиодорожка: русский
Cубтитры: нет
Режиссер: Леонид Гайдай
В ролях: Евгений Моргунов, Юрий Никулин, Георгий Вицин...

Описание:
Пес Барбос и необычный кросс:
Что есть главное средство для поддержания мужской дружбы и просто для увлекательного времяпрепровождения? Правильно, это рыбалка. Трус, Балбес и Бывалый решили испытать эту радость жизни на себе, но на свою беду взяли они с собой пса Барбоса…
Самогонщики:
Трус, Балбес и Бывалый решают поставить на широкую ногу изготовление самогона — и снова фиаско…









Исходник: DVD5 R5
Тип релиза: DVDRip
Контейнер: AVI

Видео: 704x512 (1,375:1), 25 fps, XviD ~ 2126 kbps avg, 0.236 bit/pixel
Аудио: 48 kHz, AC3, 6 ch, 448.00 kbps

Раздача от:

Общее
Полное имя: Pes.Barbos.i.neobychnyj.kross_Samogonwiki.1961.DVDRip_[Youtracker]_by_AVP Studio.avi
Формат: AVI
Формат/Информация: Audio Video Interleave
Размер файла: 186 Мбайт
Продолжительность: 10 м.
Общий поток: 2584 Кбит/сек
Программа кодирования: VirtualDubMod 1.5.10.3 | http://www.virtualdub-fr.org || (build 2550/release)
Библиотека кодирования: VirtualDubMod build 2550/release

Видео
Идентификатор: 0
Формат: MPEG-4 Visual
Профиль формата: Advanced Simple@L5
Параметр BVOP формата: 1
Параметр QPel формата: Нет
Параметр GMC формата: Без точки перехода
Параметр матрицы формата: Выборочная
Идентификатор кодека: XVID
Идентификатор кодека/Подсказка: XviD
Продолжительность: 10 м.
Битрейт: 2126 Кбит/сек
Ширина: 704 пикселя
Высота: 512 пикселей
Соотношение сторон: 1,375
Частота кадров: 25,000 кадров/сек
Цветовое пространство: YUV
Субдискретизация насыщенности: 4:2:0
Битовая глубина: 8 бит
Тип развёртки: Прогрессивная
Метод сжатия: С потерями
Бит/(Пиксели*Кадры): 0.236
Размер потока: 153 Мбайт (82%)
Библиотека кодирования: XviD 65

Аудио
Идентификатор: 1
Формат: AC-3
Формат/Информация: Audio Coding 3
Расширение режима: CM (complete main)
Идентификатор кодека: 2000
Продолжительность: 10 м.
Вид битрейта: Постоянный
Битрейт: 448 Кбит/сек
Каналы: 6 каналов
Расположение каналов: Front: L C R, Side: L R, LFE
Частота: 48,0 КГц
Битовая глубина: 16 бит
Метод сжатия: С потерями
Размер потока: 32,3 Мбайт (17%)
Выравнивание: Разделение по промежуткам
Продолжительность промежутка: 40мс. (1,00 видеокадр)
Время предзагрузки промежутка: 500мс






реклама партнёра


Вернуться к началу
 Профиль Отправить личное сообщение  
 
   Похожие торренты   Автор   Торрент   Размер 
В этой теме нет новых непрочитанных сообщений. Необычный детектив / Реальные копы / The Unusuals [S01] [Комедия, драма, 2009] WEB-DLRip, Mvo [СТС]

salma3

26 | 12

4.34 ГБ

В этой теме нет новых непрочитанных сообщений. Машина медового месяца / The Honeymoon Machine [мелодрама, комедия, 1961] DVDRip. Avo

salma3

10 | 4

1.52 ГБ

В этой теме нет новых непрочитанных сообщений. Мадам Сан-Жен / Madame Sans-Gene [драма, мелодрама, комедия, военный, 1961] DVDRip, Mvo

salma3

32 | 3

1.37 ГБ

В этой теме нет новых непрочитанных сообщений. Kayden Kross Big Boob Casting Couch / Кастинг Больших Сисек Кайден Кросс (2016) WEB-DL

amadei

1 | 2

1.96 ГБ

В этой теме нет новых непрочитанных сообщений. Девчата (Юрий Чулюкин) [Мелодрама, Комедия, 1961] BDRip 1080p

Dracon

1 | 5

9.82 ГБ

В этой теме нет новых непрочитанных сообщений. Секрет Монте-Кристо / The Treasure of Monte Cristo [приключения, 1961] DVDRip, Mvo

salma3

101 | 48

1.46 ГБ

В этой теме нет новых непрочитанных сообщений. Приключения Мэри Рид / Le avventure di Mary Read [приключения, драма, мелодрама, 1961] DVDRip, Avo

salma3

26 | 16

1.59 ГБ


Начать новую тему Ответить на тему  [ 1 сообщение ] 




Для Мосгорсуда, Роскомнадзора и рекламодателей:: mosgorsud-torrent[собачка]yandex.ru