Торрент файл
скачать торрент магнет ссылка Добавлен: 20 ноя 2012, 02:55
Размер: 1.46 ГБ
Сидеров: 198
Личеров: 14
Статус: (salma3)
Автор

СообщениеДобавлено: 20 ноя 2012, 02:55 

Не в сети
Супермодератор
Аватара пользователя
Дата регистрации:
15 фев 2012, 16:44
Возраст: 28
Спасибо: 6577 / 2143
Сообщения: 43952
Зеркало для героя
Год выпуска: 1987
Страна: СССР
Студия: Свердловская киностудия
Жанр:фантастика, фэнтези
Продолжительность: 02:11:16
Перевод: не требуется
Субтитры: нет
Оригинальная аудиодорожка: русский
Режиссер: Владимир Хотиненко
В ролях:Сергей Колтаков, Иван Бортник, Борис Галкин, Наталья Акимова, Феликс Степун, Елена Гольянова, Яков Степанов, Виктор Смирнов, Николай Стоцкий, Сергей Паршин...

Описание: Двое случайных знакомых, Сергей Пшеничный и Андрей Немчинов, волею загадочных обстоятельств переносятся почти на 40 лет назад. Этот день — 8 мая 1949 года — начинает повторяться для них с неумолимым постоянством. Каждому из героев судьба дает свой шанс: Андрей может предотвратить гибель людей в обветшавшей шахте, Сергей — по-новому взглянуть на своих родителей и понять их…





Исходник: DVD5 R5
Тип релиза: DVDRip
Контейнер: AVI

Видео: 640x432 (1.47:1), 25 fps, XviD ~ 1387 kbps avg, 0.201 bit/pixel
Аудио: 48 kHz, AC3, 2 ch, 192.00 kbps

Раздача от:

Общее
Полное имя: Zerkalo.dlja.geroja.1987.DVDRip_[Youtracker]_by_AVP Studio.avi
Формат: AVI
Формат/Информация: Audio Video Interleave
Размер файла: 1,46 Гбайт
Продолжительность: 2 ч. 11 м.
Общий поток: 1589 Кбит/сек
Программа кодирования: VirtualDubMod 1.5.10.3 | http://www.virtualdub-fr.org || (build 2550/release)
Библиотека кодирования: VirtualDubMod build 2550/release

Видео
Идентификатор: 0
Формат: MPEG-4 Visual
Профиль формата: Advanced Simple@L5
Параметр BVOP формата: 1
Параметр QPel формата: Нет
Параметр GMC формата: Без точки перехода
Параметр матрицы формата: Выборочная
Идентификатор кодека: XVID
Идентификатор кодека/Подсказка: XviD
Продолжительность: 2 ч. 11 м.
Битрейт: 1387 Кбит/сек
Ширина: 640 пикселей
Высота: 432 пикселя
Соотношение сторон: 3:2
Частота кадров: 25,000 кадров/сек
Цветовое пространство: YUV
Субдискретизация насыщенности: 4:2:0
Битовая глубина: 8 бит
Тип развёртки: Прогрессивная
Метод сжатия: С потерями
Бит/(Пиксели*Кадры): 0.201
Размер потока: 1,27 Гбайт (87%)
Библиотека кодирования: XviD 65

Аудио
Идентификатор: 1
Формат: AC-3
Формат/Информация: Audio Coding 3
Расширение режима: CM (complete main)
Идентификатор кодека: 2000
Продолжительность: 2 ч. 11 м.
Вид битрейта: Постоянный
Битрейт: 192 Кбит/сек
Каналы: 2 канала
Расположение каналов: Front: L R
Частота: 48,0 КГц
Битовая глубина: 16 бит
Метод сжатия: С потерями
Размер потока: 180 Мбайт (12%)
Выравнивание: Разделение по промежуткам
Продолжительность промежутка: 40мс. (1,00 видеокадр)
Время предзагрузки промежутка: 500мс






реклама партнёра


Вернуться к началу
 Профиль Отправить личное сообщение  
 
   Похожие торренты   Автор   Торрент   Размер 
В этой теме нет новых непрочитанных сообщений. Время для Героя [21.11.17] [RPG, MMO, Фэнтези, 2015] [Лицензия]

malvihka

1 | 0

518.66 МБ

В этой теме нет новых непрочитанных сообщений. Внутреннее пространство / Innerspace [фантастика, фэнтези, боевик, 1987] HDRip-AVC, Dub

salma3

49 | 13

2.17 ГБ

В этой теме нет новых непрочитанных сообщений. Повелители вселенной / Masters of the Universe [фантастика, фэнтези, боевик, 1987] BDRip-AVC, Mvo

salma3

207 | 80

745.53 МБ

В этой теме нет новых непрочитанных сообщений. Повелители вселенной / Masters of the Universe [фантастика, фэнтези, боевик, 1987] BDRip, Mvo

salma3

178 | 30

1.46 ГБ

В этой теме нет новых непрочитанных сообщений. Батарейки не прилагаются / *batteries not included [фантастика, фэнтези, драма, 1987] BDRip 1080p, Dvo+Sub

salma3

83 | 8

11.54 ГБ

В этой теме нет новых непрочитанных сообщений. Батарейки не прилагаются / *batteries not included [фантастика, фэнтези, драма, 1987] BDRip 720p, Dvo

salma3

61 | 14

9.66 ГБ

В этой теме нет новых непрочитанных сообщений. Внутреннее пространство / Innerspace [фантастика, фэнтези, боевик, 1987] BDRip 720p, 5Avo+3Mvo+Dub

salma3

114 | 14

7.77 ГБ


Начать новую тему Ответить на тему  [ 1 сообщение ] 




Для Мосгорсуда, Роскомнадзора и рекламодателей:: mosgorsud-torrent[собачка]yandex.ru