Торрент файл
скачать торрент магнет ссылка Добавлен: 13 ноя 2012, 20:23
Размер: 1.37 ГБ
Сидеров: 15
Личеров: 4
Статус: (Aleksandr.ru)
Автор

СообщениеДобавлено: 13 ноя 2012, 20:23 

Не в сети
Супермодератор
Аватара пользователя
Дата регистрации:
15 фев 2012, 16:44
Возраст: 27
Спасибо: 5134 / 2089
Сообщения: 17379

Название:У опасной черты

Год выхода: 1983
Жанр: Военный
Режиссер: Виктор Георгиев
В ролях: Любовь Виролайнен, Александр Збруев, Александр Граве, Эрнст Романов, Улдис Лиелдидж, Эдуард Марцевич, Евгений Лазарев, Иван Косых, Петр Фёдоров, Виктор Косых, Виктор Шульгин, Олег Куценко, Игорь Дмитриев, Ээве Киви, Евгений Дегтяренко

О фильме:
После поражения в Сталинградской битве гитлеровское командование принимается за крайние меры. Вопреки международным конвенциям, Германия собралась использовать химическое оружие. На оккупированных территориях западного СССР началось испытание образцов на военнопленных. Один из испытуемых – лейтенант-артиллерист Сергей Громов. Он решается на побег, чтобы сообщить своему командованию об опасных планах нацистов. Во время нападения партизан на автоколонну Сергею удается сбежать. После короткого сражения он пытается выйти на командование партизанами-подпольщиками и знакомится с переводчицей немецкого языка, которая имела связи в подполье. Оказавшись в среде партизан, Сергей разрабатывает план по похищению немецкого профессора, ответственного за разработку нового типа оружия.



Страна: СССР
Студия: Мосфильм
Продолжительность: 01:28:51
Язык: Русский

Файл
Кодек: XviD
Качество: DVDRip
Видео: 720x416, 2014 kbps, 25 fps
Звук: AC3, 2 ch, 192 kbps

General
Complete name : C:u.opasnoy.cherti.1983.XviD.DVDRip.avi
Format : AVI
Format/Info : Audio Video Interleave
File size : 1.37 GiB
Duration : 1h 28mn 51s
Overall bit rate : 2 213 Kbps
Writing application : VirtualDubMod 1.5.4.1 (build 2178/release)
Writing library : VirtualDubMod build 2178/release
Video #0
ID : 0
Format : MPEG-4 Visual
Format profile : Advanced Simple@L5
Format settings, BVOP : 1
Format settings, QPel : No
Format settings, GMC : No warppoints
Format settings, Matrix : Custom
Codec ID : XVID
Codec ID/Hint : XviD
Duration : 1h 28mn 51s
Bit rate : 2 014 Kbps
Width : 720 pixels
Height : 416 pixels
Display aspect ratio : 1.731
Frame rate : 25.000 fps
Color space : YUV
Chroma subsampling : 4:2:0
Bit depth : 8 bits
Scan type : Progressive
Compression mode : Lossy
Bits/(Pixel*Frame) : 0.269
Stream size : 1.25 GiB (91%)
Writing library : XviD 64
Audio #1
ID : 1
Format : AC-3
Format/Info : Audio Coding 3
Mode extension : CM (complete main)
Format settings, Endianness : Big
Codec ID : 2000
Duration : 1h 28mn 51s
Bit rate mode : Constant
Bit rate : 192 Kbps
Channel(s) : 2 channels
Channel positions : Front: L R
Sampling rate : 48.0 KHz
Bit depth : 16 bits
Compression mode : Lossy
Stream size : 122 MiB (9%)
Alignment : Split accross interleaves
Interleave, duration : 96 ms (2.40 video frames)
Interleave, preload duration : 96 ms


, , , ,


Релиз от:




реклама партнёра


Вернуться к началу
 Профиль Отправить личное сообщение  
 
   Похожие торренты   Автор   Торрент   Размер 
В этой теме нет новых непрочитанных сообщений. Под огнем / Under Fire [Драма, военный, 1983] BDRip, Avo

salma3

15 | 26

2.17 ГБ

В этой теме нет новых непрочитанных сообщений. Scream Means Feel - У черты... [2012, Thrash Metal, Melodic Death Metal, Alternative Metal, MP3]

PriZraK

0 | 1

79.82 МБ

В этой теме нет новых непрочитанных сообщений. Вечный зов [01-19 из 19] (Владимир Краснопольский, Валерий Усков) [Киноповесть, военный, драма, исторический, семейный, 1973-1983] HDTV 1080i

Dracon

43 | 25

78.59 ГБ

В этой теме нет новых непрочитанных сообщений. Костюмер / The Dresser [Драма, 1983] DVDRip, Mvo

salma3

9 | 2

1.45 ГБ

В этой теме нет новых непрочитанных сообщений. На виду / Exposed [драма, 1983] DVDRip, Mvo

salma3

7 | 4

1.37 ГБ

В этой теме нет новых непрочитанных сообщений. Африканец / L'Africain [комедия, приключения, 1983] DVDRip-AVC, Dub

salma3

31 | 2

1.56 ГБ

В этой теме нет новых непрочитанных сообщений. Слепой закон / Andhaa Kanoon [Боевик, 1983] DVDRip, Mvo

salma3

5 | 3

1.46 ГБ


Начать новую тему Ответить на тему  [ 1 сообщение ] 




Для Мосгорсуда, Роскомнадзора и рекламодателей:: mosgorsud-torrent[собачка]yandex.ru