Торрент файл
скачать торрент магнет ссылка Добавлен: 06 май 2012, 13:02
Размер: 2.03 ГБ
Сидеров: 59
Личеров: 10
Автор

СообщениеДобавлено: 06 май 2012, 13:02 

Не в сети
Релизёр
Дата регистрации:
02 апр 2012, 20:33
Спасибо: 361 / 0
Сообщения: 1461
Сказка о потерянном времени


Доп. озвучивание:английский, французский (Профессиональный, одноголосый, закадровый)
Субтитры:русские, английские, французские, испанские, голландские, шведские, немецкие, итальянские, португальские (все SRT);японские, еврейские, китайские (все VobSub) - отключаемые
Формат: DVDRip-AVC, MKV, H.264, AC3
Режиссер: Александр Птушко
Жанр: сказка
Продолжительность: 01:15:40
Год выпуска: 1964
В ролях: Олег Анофриев, Гриша Плоткин, Сергей Мартинсон, Евгений Соколов, Георгий Вицин, Сергей Карпоносов, Ирина Мурзаева, Зинаида Кукушкина, Валентина Телегина, Татьяна Донценко, Людмила Шагалова, Вера Волкова, Рина Зеленая, Лидия Константинова, Савелий Крамаров, Михаил Кулаев, Юрий Чекулаев, Вадим Грачев, Евгений Моргунов, Григорий Шпигель, Ева Синельникова, Зоя Фёдорова, Нина Гребешкова, Муза Крепкогорская, Марина Кузнецова, Александра Панова, Сергей Ромоданов, В. Рябцева.
Описание: Четверо злых волшебников решили вернуть себе молодость. Но для этого им было необходимо найти людей, бесцельно растрачивающих свое время. Удача улыбнулась им в лице четверых безалаберных школьников. Из-за колдовства школьники постарели, а волшебники превратились в детей. Но у превращенных остался шанс — до заката солнца они должны были найти избушку волшебников и перевести стрелки волшебных часов назад…

Видео: 696x568>758х568 (4:3), 25 fps, AVC (x264), , 2 441 Kbps, 0.247 bit/pixel
Аудио:
01: Русский 48 kHz, АС3 Audio Coding 3, 3/2 (L,C,R,l,r) + LFE ch, ~ 448 kbps Оригинал
02: Английский 48 kHz, АС3 Audio Coding 3, 3/2 (L,C,R,l,r) + LFE ch, ~ 448 kbps Профессиональный (одноголосый, закадровый)
03: Французский 48 kHz, АС3 Audio Coding 3, 3/2 (L,C,R,l,r) + LFE ch, ~ 448 kbps Профессиональный (одноголосый, закадровый)
Доп.информация:
Релиз для всех, изучающих иностранные языки.
Благодарность за рип Evgeny Crow,
Отдельно англ. и француз. аудиодорожки > Chyma_sbздесь

Релиз группы: R.G.NasheKino
Сведение видео и звука: OLEG58vrnzh
Format : Matroska
File size : 1.56 GiB
Duration : 1h 15mn
Overall bit rate : 2 948 Kbps
Movie name : Сказка о потерянном времени (1964)
Encoded date : UTC 2011-06-06 21:55:24
Writing application : mkvmerge v2.2.0 ('Turn It On Again') built on Mar 4 2008 12:58:26
Writing library : libebml v0.7.7 + libmatroska v0.8.1
Video
ID : 1
Format : AVC
Format/Info : Advanced Video Codec
Format profile :
Format settings, CABAC : Yes
Format settings, ReFrames : 16 frames
Muxing mode : Container profile=Unknown@4.0
Codec ID : V_MPEG4/ISO/AVC
Duration : 1h 15mn
Bit rate : 2 441 Kbps
Width : 696 pixels
Height : 568 pixels
Display aspect ratio : 4:3
Original display aspect ratio : 1.225
Frame rate : 25.000 fps
Resolution : 24 bits
Colorimetry : 4:2:0
Scan type : Progressive
Bits/(Pixel*Frame) : 0.247
Stream size : 1.29 GiB (83%)
Title : ~2487 kbit/s
Writing library : x264 core 114 r1924 08d04a4
Encoding settings : cabac=1 / ref=16 / deblock=1:0:0 / analyse=0x3:0x133 / me=umh / subme=10 / psy=1 / psy_rd=1.00:0.00 / mixed_ref=1 / me_range=48 / chroma_me=1 / trellis=2 / 8x8dct=1 / cqm=0 / deadzone=21,11 / fast_pskip=1 / chroma_qp_offset=-2 / threads=6 / sliced_threads=0 / nr=0 / decimate=1 / interlaced=0 / constrained_intra=0 / bframes=8 / b_pyramid=2 / b_adapt=2 / b_bias=0 / direct=3 / weightb=1 / open_gop=0 / weightp=2 / keyint=250 / keyint_min=25 / scenecut=40 / intra_refresh=0 / rc=crf / mbtree=0 / crf=21.3 / qcomp=0.74 / qpmin=0 / qpmax=51 / qpstep=4 / ip_ratio=1.30 / pb_ratio=1.20 / aq=2:1.00
Language : Russian
Audio
Format : AC-3
Format/Info : Audio Coding 3
Codec ID : A_AC3
Duration : 1h 15mn
Bit rate mode : Constant
Bit rate : 448 Kbps
Channel(s) : 6 channels
Channel positions : Front: L C R, Surround: L R, LFE
Sampling rate : 48.0 KHz
Stream size : 242 MiB (15%)
Language : Russian
Аудио[END]
Формат : AC-3
Формат/Информация : Audio Coding 3
Расширение режима : CM (complete main)
Продолжительность : 1 ч. 15 м.
Вид битрейта : Постоянный
Битрейт : 448 Кбит/сек
Каналы : 6 каналов
Расположение каналов : Front: L C R, Side: L R, LFE
Частота : 48,0 КГц
Битовая глубина : 16 бит
Метод сжатия : С потерями
Размер потока : 242 Мбайт (100%)
Аудио[FRE]
Формат : AC-3
Формат/Информация : Audio Coding 3
Расширение режима : CM (complete main)
Продолжительность : 1 ч. 15 м.
Вид битрейта : Постоянный
Битрейт : 448 Кбит/сек
Каналы : 6 каналов
Расположение каналов : Front: L C R, Side: L R, LFE
Частота : 48,0 КГц
Битовая глубина : 16 бит
Метод сжатия : С потерями
Размер потока : 242 Мбайт (100%)
Text #1
ID : 3
Format : UTF-8
Codec ID : S_TEXT/UTF8
Codec ID/Info : UTF-8 Plain Text
Title : russian
Language : Russian
Text #2
ID : 4
Format : UTF-8
Codec ID : S_TEXT/UTF8
Codec ID/Info : UTF-8 Plain Text
Title : english
Language : English
Text #3
ID : 5
Format : UTF-8
Codec ID : S_TEXT/UTF8
Codec ID/Info : UTF-8 Plain Text
Title : francais
Language : French
Text #4
ID : 6
Format : UTF-8
Codec ID : S_TEXT/UTF8
Codec ID/Info : UTF-8 Plain Text
Title : espanol
Language : Spanish
Text #5
ID : 7
Format : UTF-8
Codec ID : S_TEXT/UTF8
Codec ID/Info : UTF-8 Plain Text
Title : nederlands
Language : Dutch
Text #6
ID : 8
Format : UTF-8
Codec ID : S_TEXT/UTF8
Codec ID/Info : UTF-8 Plain Text
Title : swedish
Language : Swedish
Text #7
ID : 9
Format : UTF-8
Codec ID : S_TEXT/UTF8
Codec ID/Info : UTF-8 Plain Text
Title : german
Language : German
Text #8
ID : 10
Format : UTF-8
Codec ID : S_TEXT/UTF8
Codec ID/Info : UTF-8 Plain Text
Title : italiano
Language : Italian
Text #9
ID : 11
Format : UTF-8
Codec ID : S_TEXT/UTF8
Codec ID/Info : UTF-8 Plain Text
Title : portugues
Language : Portuguese
Text #10
ID : 12
Format : VobSub
Codec ID : S_VOBSUB
Codec ID/Info : The same subtitle format used on DVDs
Title : japanese
Language : Japanese
Text #11
ID : 13
Format : VobSub
Codec ID : S_VOBSUB
Codec ID/Info : The same subtitle format used on DVDs
Title : hebrew
Language : Hebrew
Text #12
ID : 14
Format : VobSub
Codec ID : S_VOBSUB
Codec ID/Info : The same subtitle format used on DVDs
Title : chinese
Language : Chinese










реклама партнёра


Вернуться к началу
 Профиль Отправить личное сообщение  
 
   Похожие торренты   Автор   Торрент   Размер 
В этой теме нет новых непрочитанных сообщений. Пансионат "Сказка", или Чудеса включены [Серия 1-4 из 4] (Александр Жигалкин) [Комедия, 2015] SATRip

Dracon

35 | 7

2.41 ГБ

В этой теме нет новых непрочитанных сообщений. Руслан и Людмила [Сказка, мелодрама, экранизация, 1972] DVDRip-AVC

salma3

14 | 4

4.24 ГБ

В этой теме нет новых непрочитанных сообщений. Сказка для взрослых [2013 г., Amateur, CamRip 576p]

friizze

13 | 3

108.33 МБ

В этой теме нет новых непрочитанных сообщений. 12 месяцев. Новая сказка (Денис Елеонский) [комедия, 2014] WEB-DL 1080p

Dracon

64 | 7

3.43 ГБ

В этой теме нет новых непрочитанных сообщений. Вечера на хуторе близ Диканьки [семейный, сказка, 1961] WEB-DLRip

salma3

54 | 10

1.32 ГБ

В этой теме нет новых непрочитанных сообщений. 12 месяцев. Новая сказка (Денис Елеонский) [комедия, 2014] WEB-DLRip [ITunes]

Dracon

1 | 4

1.37 ГБ

В этой теме нет новых непрочитанных сообщений. Маша и медведь: Есть контакт! [65] [сказка, детский, семейный, 2017] WEB-DL 720p

salma3

309 | 23

112.22 МБ


Начать новую тему Ответить на тему  [ 1 сообщение ] 




Для Мосгорсуда, Роскомнадзора и рекламодателей:: mosgorsud-torrent[собачка]yandex.ru