Торрент файл
скачать торрент магнет ссылка Добавлен: 06 май 2012, 13:02
Размер: 2.18 ГБ
Сидеров: 28
Личеров: 10
Автор

СообщениеДобавлено: 06 май 2012, 13:02 

Не в сети
Релизёр
Дата регистрации:
02 апр 2012, 20:33
Спасибо: 345 / 0
Сообщения: 1461
Джентльмены удачи


Доп. озвучивание: английский, французский (Профессиональный, многоголосый - RusCico)
Формат: DVDRip-AVC, MKV, H.264, AC3
Режиссер: Александр Серый
Жанр: комедия
Продолжительность: 01:23:12
Год выпуска: 1971
В ролях: Евгений Леонов, Георгий Вицин, Савелий Крамаров, Раднэр Муратов, Эраст Гарин, Олег Видов, Николай Олялин, Наталья Фатеева, Анатолий Папанов, Любовь Соколова, Владимир Уан-Зо-Ли, Павел Шпрингфельд, Анатолий Яббаров, Алексей Ванин, Зоя Василькова, Роман Филиппов, Светлана Старикова, Александр Лукьянов, Юрий Потёмкин, Николай Сморчков, Иван Турченков, Вадим Захарченко, Тулкин Таджиев, Оля Серая, Коля Данелия, Игорёк Угольников
Описание: Заведующему детсадом Трошкину фатально не повезло: он оказался как две капли воды похож на бандита по кличке «Доцент», похитившего уникальный шлем Александра Македонского. Милиция внедряет добряка Трошкина в воровскую среду — и ему ничего не остается, кроме как старательно изображать своего двойника-злодея, путая всех окружающих. Между тем, жизни его угрожает смертельная опасность…

Видео: 698x572 > 744x572 (4:3), 25 fps, AVC (x264), , 2325 kbps, 0.233 bit/pixel
Аудио:
01 Русский 48 kHz, AC-3 Audio Coding 3, 6 ch (Front: L C R, Side: L R, LFE), 448 kbps Оригинал
02 Английский 48 kHz, AC-3 Audio Coding 3, 6 ch (Front: L C R, Side: L R, LFE), 448 kbps Профессиональный, многоголосый, закадровый
03 Французский 48 kHz, AC-3 Audio Coding 3, 6 ch (Front: L C R, Side: L R, LFE), 448 kbps Профессиональный, многоголосый, закадровый
Доп.информация:
Релиз для всех, изучающих иностранные языки.
Благодарность за рип Vospik,
Отдельно англ. и француз. аудиодорожки > Chyma_sbздесь

Релиз группы: R.G.NasheKino
Сведение видео и звука: OLEG58vrnzh
Общее
Полное имя: gentlemeny_udachi_2MVO-Eng.Fre.AC3.x264-RG.NasheKino-[tfile.ru].mkv
Формат: Matroska
Версия формата: Version 2
Размер файла: 2,18 Гбайт
Продолжительность: 1 ч. 23 м.
Общий поток: 3743 Кбит/сек
Дата кодирования: UTC 2012-05-04 13:34:15
Программа кодирования: mkvmerge v5.3.0 ('I could have danced') built on Mar5 2012 16:04:53
Библиотека кодирования: libebml v1.2.3 + libmatroska v1.3.0
Видео
Идентификатор: 1
Формат: AVC
Формат/Информация: Advanced Video Codec
Профиль формата:
Параметр CABAC формата: Да
Параметр ReFrames формата: 16 кадров
Режим смешивания: Header stripping
Идентификатор кодека: V_MPEG4/ISO/AVC
Продолжительность: 1 ч. 23 м.
Битрейт: 2325 Кбит/сек
Ширина: 698 пикселей
Высота: 572 пикселя
Соотношение сторон: 4:3
Соотношение сторон в оригинале: 1,300
Частота кадров: 25,000 кадров/сек
Цветовое пространство: YUV
Субдискретизация насыщенности: 4:2:0
Битовая глубина: 8 бит
Тип развёртки: Прогрессивная
Бит/(Пиксели*Кадры): 0.233
Размер потока: 1,35 Гбайт (62%)
Библиотека кодирования: x264 core 120 r2164 da19765
Настройки программы: cabac=1 / ref=16 / deblock=1:0:0 / analyse=0x3:0x113 / me=tesa / subme=9 / psy=1 / psy_rd=1.00:0.05 / mixed_ref=1 / me_range=24 / chroma_me=1 / trellis=1 / 8x8dct=1 / cqm=0 / deadzone=21,11 / fast_pskip=0 / chroma_qp_offset=-3 / threads=6 / sliced_threads=0 / nr=0 / decimate=1 / interlaced=0 / bluray_compat=0 / constrained_intra=0 / bframes=12 / b_pyramid=2 / b_adapt=2 / b_bias=0 / direct=1 / weightb=1 / open_gop=0 / weightp=2 / keyint=250 / keyint_min=25 / scenecut=40 / intra_refresh=0 / rc_lookahead=50 / rc=crf / mbtree=1 / crf=18.9 / qcomp=0.60 / qpmin=0 / qpmax=69 / qpstep=4 / ip_ratio=1.40 / aq=1:1.00
Default: Да
Forced: Нет
Коэффициенты матрицы: BT.470-6 System B, BT.470-6 System G, BT.601-6 625, BT.1358 625, BT.1700 625 PAL, BT.1700 625 SECAM, IEC 61966-2-4 601
Аудио #1
Идентификатор: 2
Формат: AC-3
Формат/Информация: Audio Coding 3
Расширение режима: ME (music and effects)
Режим смешивания: Header stripping
Идентификатор кодека: A_AC3
Продолжительность: 1 ч. 23 м.
Вид битрейта: Постоянный
Битрейт: 448 Кбит/сек
Каналы: 6 каналов
Расположение каналов: Front: L C R, Side: L R, LFE
Частота: 48,0 КГц
Битовая глубина: 16 бит
Метод сжатия: С потерями
Размер потока: 267 Мбайт (12%)
Язык: Russian
Default: Да
Forced: Нет
Аудио #2
Идентификатор: 3
Формат: AC-3
Формат/Информация: Audio Coding 3
Расширение режима: CM (complete main)
Режим смешивания: Header stripping
Идентификатор кодека: A_AC3
Продолжительность: 1 ч. 23 м.
Вид битрейта: Постоянный
Битрейт: 448 Кбит/сек
Каналы: 6 каналов
Расположение каналов: Front: L C R, Side: L R, LFE
Частота: 48,0 КГц
Битовая глубина: 16 бит
Метод сжатия: С потерями
Размер потока: 267 Мбайт (12%)
Default: Нет
Forced: Нет
Аудио #3
Идентификатор: 4
Формат: AC-3
Формат/Информация: Audio Coding 3
Расширение режима: CM (complete main)
Режим смешивания: Header stripping
Идентификатор кодека: A_AC3
Продолжительность: 1 ч. 23 м.
Вид битрейта: Постоянный
Битрейт: 448 Кбит/сек
Каналы: 6 каналов
Расположение каналов: Front: L C R, Side: L R, LFE
Частота: 48,0 КГц
Битовая глубина: 16 бит
Метод сжатия: С потерями
Размер потока: 267 Мбайт (12%)
Default: Нет
Forced: Нет









реклама партнёра


Вернуться к началу
 Профиль Отправить личное сообщение  
 
   Похожие торренты   Автор   Торрент   Размер 
В этой теме нет новых непрочитанных сообщений. Иван Царевич и Серый Волк 2 [Мультфильм, семейный, 2013] DVDRip

Dracon

2703 | 78

1.37 ГБ

В этой теме нет новых непрочитанных сообщений. Иван Царевич и Серый Волк 2 [Мультфильм, семейный, 2013] DVDRip

Dracon

60 | 2

698.37 МБ

В этой теме нет новых непрочитанных сообщений. Котч / Старикан / Kotch [Драма, комедия, 1971] DVDRip, Dvo

salma3

14 | 3

1.48 ГБ

В этой теме нет новых непрочитанных сообщений. Сыщик / Gumshoe [драма, комедия, криминал, детектив, 1971] DVDRip, Mvo

salma3

4 | 5

1.47 ГБ

В этой теме нет новых непрочитанных сообщений. Серый человек / The Gray Man [триллер, детектив, драма, 2007] HDRip, Avo

salma3

3 | 3

1.46 ГБ

В этой теме нет новых непрочитанных сообщений. Иван Царевич и Серый Волк 2 [Мультфильм, семейный, 2013] DVD5

Dracon

44 | 4

3.63 ГБ

В этой теме нет новых непрочитанных сообщений. Иван Царевич и Серый Волк 2 [Мультфильм, семейный, 2013] BDRip-AVC [Лицензия]

Dracon

13 | 2

1.45 ГБ


Начать новую тему Ответить на тему  [ 1 сообщение ] 




Для Мосгорсуда, Роскомнадзора и рекламодателей:: mosgorsud-torrent[собачка]yandex.ru