Торрент файл
скачать торрент магнет ссылка Добавлен: 01 апр 2012, 03:06
Размер: 1.37 ГБ
Сидеров: 3
Личеров: 8
Автор

СообщениеДобавлено: 01 апр 2012, 03:06 

Не в сети
Супермодератор
Аватара пользователя
Дата регистрации:
22 май 2010, 11:03
Возраст: 31
Спасибо: 7508 / 13
Сообщения: 49940
Шаг с крыши


Формат: DVDRip-AVC, MKV, x264, AC3
Режиссер: Радомир Василевский
Жанр: детский, приключения
Продолжительность: 01:24:03
Год выпуска: 1970

В ролях: Дмитрий Николаев, Нета Боярская, Георгий Милляр, Николай Карнаухов, Борислав Брондуков, Анатолий Яббаров, Александр Потапов, Лев Прыгунов, Анатолий Обухов, Владимир Балон, Роман Ткачук

Описание: Пятиклассник Витька Парамонов знакомится на крыше с синей вороной. С ее помощью герой совершает путешествие во времени и попадает в доисторическое общество, во Францию времен мушкетеров, в 1919 год — вместе с бойцами легендарной Чапаевской дивизии.



Видео: 704x528 (4:3), 23,976 fps, x264, ~2024 kbps avg, 0.218 bit/pixel
Аудио: 48 kHz, AC3 Dolby Digital, 2 (L,R)ch, ~256 kbps
Видео
Идентификатор: 1
Формат: x264
Идентификатор кодека: x264
Продолжительность: 1 ч. 24 м.
Битрейт: 2024 Кбит/сек
Ширина: 704 пикселя
Высота: 528 пикселей
Соотношение сторон: 4:3
Частота кадров: 25,000 кадров/сек
Бит/(Пиксели*Кадры): 0.218
Размер потока: 1,19 Гбайт (87%)
Язык: English
Default: Да
Forced: Нет

Аудио
Идентификатор: 2
Формат: AC-3
Формат/Информация: Audio Coding 3
Расширение режима: CM (complete main)
Идентификатор кодека: A_AC3
Продолжительность: 1 ч. 24 м.
Вид битрейта: Постоянный
Битрейт: 256 Кбит/сек
Каналы: 2 канала
Расположение каналов: Front: L R
Частота: 48,0 КГц
Битовая глубина: 16 бит
Метод сжатия: С потерями
Размер потока: 154 Мбайт (11%)
Язык: English
Default: Да
Forced: Нет











Поделиться:




реклама партнёра


Вернуться к началу
 Профиль Отправить личное сообщение  
 
   Похожие торренты   Автор   Торрент   Размер 
В этой теме нет новых непрочитанных сообщений. Торговец звуками / Trader Hornee [комедия, приключения, 1970] DVDRip, Dvo

salma3

46 | 4

1.37 ГБ

В этой теме нет новых непрочитанных сообщений. Галгамет / Galgamet [Фэнтези, приключения, семейный, детский, 1996] DVDRip, Dvo+Avo

salma3

44 | 6

1.59 ГБ

В этой теме нет новых непрочитанных сообщений. Звериный отряд / Cuccioli: Il Paese del Vento (Серджо Манфио) [детский, приключения, 2014] DVDRip, Dub [Лицензия]

Dracon

33 | 2

1.37 ГБ

В этой теме нет новых непрочитанных сообщений. Приключения Ам Няма / Om Nom Stories [S01-03] (Артур Меркулов, Игорь Сандимиров) [2011-2014, Мультсериал, рисованный, детский, приключения, WEB-DL 720p]

Nickolas3435

510 | 27

845.55 МБ

В этой теме нет новых непрочитанных сообщений. Новые приключения пчёлки Майи / Maya the Bee / Сезон: 1 / Серии78 (Дэниэл Дуда / Daniel Duda) [2012, Детский, приключения, сказка, SATRip] Dub

RusTan

79 | 18

12.43 ГБ

В этой теме нет новых непрочитанных сообщений. 12 стульев / The Twelve Chairs [комедия, приключения, 1970] BDRip, Mvo [5 канал]

salma3

90 | 8

1.46 ГБ

В этой теме нет новых непрочитанных сообщений. Маша и Медведь. Машкины страшилки [01-05] (Олег Ужинов, Денис Червяцов, Олег Кузовков) [Мультсериал, детский, приключения, комедия. 2014-2015] DVDRip-AVC, WEB-DLRip-AVC

Dracon

306 | 68

436.13 МБ


Начать новую тему Ответить на тему  [ 1 сообщение ] 




Для Мосгорсуда, Роскомнадзора и рекламодателей:: mosgorsud-torrent[собачка]yandex.ru