Торрент файл
скачать торрент магнет ссылка Добавлен: 01 апр 2012, 02:49
Размер: 1.55 ГБ
Сидеров: 13
Личеров: 8
Автор

СообщениеДобавлено: 01 апр 2012, 02:49 

Не в сети
Администратор
Дата регистрации:
08 апр 2010, 18:00
Спасибо: 1075 / 220
Сообщения: 17131
Илья Муромец


Субтитры:Русские
Формат: DVDRip-AVC, MKV, H264, AC3

Режиссер: Александр Птушко

Жанр: фэнтези
Продолжительность: 01:26:43
Год выпуска: 1956

В ролях: Борис Андреев, Шукур Бурханов, Андрей Абрикосов, Наталья Медведева, Нинель Мышкова, Сергей Мартинсон, Георгий Дёмин, Александр Шворин, Владимир Соловьев, Михаил Пуговкин

Описание: Защитник Руси, богатырь Илья Муромец по навету бояр попадает в княжеское подземелье. Но когда на родную землю вновь приходит беда, вынужден князь идти на поклон Муромцу и друзьям его — Алеше Поповичу и Добрыне Никитичу…



Видео: 704 x 304 (2,35:1), 25,000 кадр/сек, AVC (х264), High@L5.1, ~ 2 170 Kbps, 0.406 bit/pixel
Аудио: 48 kHz, AC3 Dolby Digital, 4 ch (Front: L C R, Side: C), ~384 kbps

Видео
Идентификатор: 1
Формат: AVC
Формат/Информация: Advanced Video Codec
Профиль формата: High@L5.1
Параметр CABAC формата: Да
Параметр ReFrames формата: 4 кадра
Режим смешивания: Header stripping
Идентификатор кодека: V_MPEG4/ISO/AVC
Продолжительность: 1 ч. 26 м.
Битрейт: 2170 Кбит/сек
Ширина: 704 пикселя
Высота: 304 пикселя
Соотношение сторон: 2,35:1
Частота кадров: 25,000 кадров/сек
Цветовое пространство: YUV
Субдискретизация насыщенности: 4:2:0
Битовая глубина: 8 бит
Тип развёртки: Прогрессивная
Бит/(Пиксели*Кадры): 0.406
Размер потока: 1,29 Гбайт (83%)
Заголовок: Илья Муромец (Rip by Druid)
Библиотека кодирования: x264 core 120 r2120bm 0c7dab9
Настройки программы: cabac=1 / ref=2 / deblock=1:0:0 / analyse=0x3:0x113 / me=hex / subme=6 / psy=1 / psy_rd=1.00:0.00 / mixed_ref=1 / me_range=16 / chroma_me=1 / trellis=1 / 8x8dct=1 / cqm=0 / deadzone=21,11 / fast_pskip=1 / chroma_qp_offset=-2 / threads=3 / sliced_threads=0 / nr=0 / decimate=1 / interlaced=0 / bluray_compat=0 / constrained_intra=0 / bframes=3 / b_pyramid=2 / b_adapt=1 / b_bias=0 / direct=1 / weightb=1 / open_gop=0 / weightp=1 / keyint=250 / keyint_min=25 / scenecut=40 / intra_refresh=0 / rc_lookahead=30 / rc=2pass / mbtree=1 / bitrate=2170 / ratetol=1.0 / qcomp=0.60 / qpmin=0 / qpmax=69 / qpstep=4 / cplxblur=20.0 / qblur=0.5 / ip_ratio=1.40 / aq=1:1.00
Язык: Russian
Default: Да
Forced: Нет

Аудио
Идентификатор: 2
Формат: AC-3
Формат/Информация: Audio Coding 3
Расширение режима: CM (complete main)
Режим смешивания: Header stripping
Идентификатор кодека: A_AC3
Продолжительность: 1 ч. 26 м.
Вид битрейта: Постоянный
Битрейт: 384 Кбит/сек
Каналы: 4 канала
Расположение каналов: Front: L C R, Side: C
Частота: 48,0 КГц
Битовая глубина: 16 бит
Метод сжатия: С потерями
Задержка видео: 300 мс.
Размер потока: 239 Мбайт (15%)
Заголовок: Русский 3.1
Язык: Russian
Default: Да
Forced: Да

Текст
Идентификатор: 3
Формат: UTF-8
Идентификатор кодека: S_TEXT/UTF8
Идентификатор кодека/Информация: UTF-8 Plain Text
Заголовок: Русские субтитры
Язык: Russian
Default: Да
Forced: Нет














Поделиться:




реклама партнёра


Вернуться к началу
 Профиль Отправить личное сообщение  
 
   Похожие торренты   Автор   Торрент   Размер 
В этой теме нет новых непрочитанных сообщений. Мы ждём вас с победой (Илья Трауберг, Александр Медведкин) [1941, музыка, DVDRip]

Nickolas3435

6 | 6

495.66 МБ

В этой теме нет новых непрочитанных сообщений. Илья Старинов. Личный враг Гитлера (Александр Евсюков) [Документальный, история, 2014] SATRip

Dracon

9 | 6

551.18 МБ

В этой теме нет новых непрочитанных сообщений. Тайный город [01-08 из 08] (Александр Мохов) [2014, фэнтези, DVDRip | лицензия]

Nickolas3435

472 | 55

5.38 ГБ

В этой теме нет новых непрочитанных сообщений. Три жестоких человека / Three Violent People [вестерн, 1956] DVDRip, Mvo

salma3

24 | 2

1.36 ГБ

В этой теме нет новых непрочитанных сообщений. Слова, написанные на ветру / Written on the Wind [Драма, мелодрама, 1956] DVDRip, Mvo

salma3

10 | 2

1.37 ГБ

В этой теме нет новых непрочитанных сообщений. 4 (Илья Хржановский) [2005, драма, фантастика, триллер, DVDRip]

marya111

56 | 14

1.46 ГБ

В этой теме нет новых непрочитанных сообщений. Рога / Horns (Александр Ажа) [ужасы, фэнтези, триллер, драма, 2013] HDRip, Mvo [Лицензия]

Dracon

184 | 10

1.37 ГБ


Начать новую тему Ответить на тему  [ 1 сообщение ] 




Для Мосгорсуда, Роскомнадзора и рекламодателей:: mosgorsud-torrent[собачка]yandex.ru