Торрент файл
скачать торрент магнет ссылка Добавлен: 01 апр 2012, 02:47
Размер: 4.21 ГБ
Сидеров: 9
Личеров: 14
Автор

СообщениеДобавлено: 01 апр 2012, 02:47 

Не в сети
Администратор
Дата регистрации:
08 апр 2010, 18:00
Спасибо: 1110 / 220
Сообщения: 17090
Мама

Формат: DVDRip, MKV, H.264, AC3
Язык: Русский,
Субтитры: отсутствуют
Страна: Франция, СССР, Румыния
Режиссер: Элизабета Бостан
Жанр: мюзикл, фэнтези, семейный
Продолжительность: 01:23:00
Год выпуска: 1976
В ролях: Людмила Гурченко, Михаил Боярский, Олег Попов, Савелий Крамаров, Валентин Манохин, Джордж Михаица, Флориан Питиш, Вера Ивлева, Евгений Герчаков, Наталья Крачковская
Описание: Остроумная музыкальная версия всем известной истории про Серого Волка, семерых козлят (в фильме их пятеро) и их очаровательную героическую Маму.

Видео: 720x368@768х368 (2,2:1), 25.000 fps, AVC (х264) High@L4.1, ~ 2100 Kbps, 0.317 bit/pixel
Аудио: 48 kHz, AC3 Dolby Digital, 2 (L, R) ch, ~192 kbps avg



Доп. информация: Фильм вышел на трех языках: русском, английском и румынском. Каждая сцена переснималась отдельно на каждом из этих языков и поэтому хронометраж и порядок сцен во всех трёх версиях отличается.
В русской версии главные герои (Серый Волк, тетя Маша — Мать Коза) поют сами, детей озвучивает Клара Румянова, в английской и румынской версиях советские актёры только воспроизводили соответствующую артикуляцию, а сами впоследствии были продублированы.
По словам Михаила Боярского, советская версия получилась хуже других, так как для английской версии каждая сцена снималась в пять-шесть дублей, для румынской — по три, а для русской оставалось мало съемочного времени и поэтому для неё отводился только один дубль.
Монтировался фильм в разных странах: русская — в СССР, румынская — в Румынии, английская — во Франции.


Видео
Идентификатор: 1
Формат: AVC
Формат/Информация: Advanced Video Codec
Профиль формата: High@L4.1
Параметр CABAC формата: Да
Параметр ReFrames формата: 4 кадра
Режим смешивания: Header stripping
Идентификатор кодека: V_MPEG4/ISO/AVC
Продолжительность: 1 ч. 23 м.
Битрейт: 2100 Кбит/сек
Ширина: 720 пикселей
Высота: 368 пикселей
Соотношение сторон: 2,087
Соотношение сторон в оригинале: 2,2:1
Частота кадров: 25,000 кадров/сек
Цветовое пространство: YUV
Субдискретизация насыщенности: 4:2:0
Битовая глубина: 8 бит
Тип развёртки: MBAFF
Бит/(Пиксели*Кадры): 0.317
Размер потока: 1,19 Гбайт (90%)
Заголовок: Мама_СССР (Rip_by_Druid)
Библиотека кодирования: x264 core 120 r2164 da19765
Настройки программы: cabac=1 / ref=3 / deblock=1:-1:-1 / analyse=0x3:0x113 / me=hex / subme=7 / psy=1 / psy_rd=1.00:0.15 / mixed_ref=1 / me_range=16 / chroma_me=1 / trellis=1 / 8x8dct=1 / cqm=0 / deadzone=21,11 / fast_pskip=1 / chroma_qp_offset=-3 / threads=3 / sliced_threads=0 / nr=0 / decimate=1 / interlaced=tff / bluray_compat=0 / constrained_intra=0 / bframes=3 / b_pyramid=2 / b_adapt=1 / b_bias=0 / direct=1 / weightb=1 / open_gop=0 / weightp=0 / keyint=250 / keyint_min=25 / scenecut=40 / intra_refresh=0 / rc_lookahead=40 / rc=2pass / mbtree=1 / bitrate=2100 / ratetol=1.0 / qcomp=0.60 / qpmin=10 / qpmax=51 / qpstep=4 / cplxblur=20.0 / qblur=0.5 / ip_ratio=1.40 / aq=1:1.00
Язык: Russian
Default: Да
Forced: Нет

Аудио
Идентификатор: 2
Формат: AC-3
Формат/Информация: Audio Coding 3
Расширение режима: CM (complete main)
Режим смешивания: Header stripping
Идентификатор кодека: A_AC3
Продолжительность: 1 ч. 23 м.
Вид битрейта: Постоянный
Битрейт: 192 Кбит/сек
Каналы: 2 канала
Расположение каналов: Front: L R
Частота: 48,0 КГц
Битовая глубина: 16 бит
Метод сжатия: С потерями
Размер потока: 114 Мбайт (8%)
Язык: Russian
Default: Да
Forced: Да






















Мама / Mama

Формат: DVDRip, MKV, H.264, AC3
Язык: Румынский,
Субтитры: отсутствуют
Страна: Франция, СССР, Румыния
Режиссер: Элизабета Бостан
Жанр: мюзикл, фэнтези, семейный
Продолжительность: 01:23:00
Год выпуска: 1976
В ролях: Людмила Гурченко, Михаил Боярский, Олег Попов, Савелий Крамаров, Валентин Манохин, Джордж Михаица, Флориан Питиш, Вера Ивлева, Евгений Герчаков, Наталья Крачковская
Описание: Остроумная музыкальная версия всем известной истории про Серого Волка, семерых козлят (в фильме их пятеро) и их очаровательную героическую Маму.

Видео: 720x416@1024х416 (2,46:1), 25.000 fps, AVC (х264) High@L4.1, ~ 2250 Kbps, 0.3 bit/pixel
Аудио: 48 kHz, AC3 Dolby Digital, 2 (L, R) ch, ~192 kbps avg



Видео
Идентификатор: 1
Формат: AVC
Формат/Информация: Advanced Video Codec
Профиль формата: High@L4.1
Параметр CABAC формата: Да
Параметр ReFrames формата: 4 кадра
Режим смешивания: Header stripping
Идентификатор кодека: V_MPEG4/ISO/AVC
Продолжительность: 1 ч. 23 м.
Битрейт: 2250 Кбит/сек
Ширина: 720 пикселей
Высота: 416 пикселей
Соотношение сторон: 2,40:1
Соотношение сторон в оригинале: 2,40:1
Частота кадров: 25,000 кадров/сек
Цветовое пространство: YUV
Субдискретизация насыщенности: 4:2:0
Битовая глубина: 8 бит
Тип развёртки: MBAFF
Бит/(Пиксели*Кадры): 0.300
Размер потока: 1,28 Гбайт (90%)
Заголовок: Ma-ma_Romania (Rip_by_Druid)
Библиотека кодирования: x264 core 120 r2164 da19765
Настройки программы: cabac=1 / ref=3 / deblock=1:-1:-1 / analyse=0x3:0x113 / me=hex / subme=7 / psy=1 / psy_rd=1.00:0.15 / mixed_ref=1 / me_range=16 / chroma_me=1 / trellis=1 / 8x8dct=1 / cqm=0 / deadzone=21,11 / fast_pskip=1 / chroma_qp_offset=-3 / threads=3 / sliced_threads=0 / nr=0 / decimate=1 / interlaced=tff / bluray_compat=0 / constrained_intra=0 / bframes=3 / b_pyramid=2 / b_adapt=1 / b_bias=0 / direct=1 / weightb=1 / open_gop=0 / weightp=0 / keyint=250 / keyint_min=25 / scenecut=40 / intra_refresh=0 / rc_lookahead=40 / rc=2pass / mbtree=1 / bitrate=2250 / ratetol=1.0 / qcomp=0.60 / qpmin=10 / qpmax=51 / qpstep=4 / cplxblur=20.0 / qblur=0.5 / ip_ratio=1.40 / aq=1:1.00
Язык: Romanian
Default: Да
Forced: Нет

Аудио
Идентификатор: 2
Формат: AC-3
Формат/Информация: Audio Coding 3
Расширение режима: CM (complete main)
Режим смешивания: Header stripping
Идентификатор кодека: A_AC3
Продолжительность: 1 ч. 23 м.
Вид битрейта: Постоянный
Битрейт: 192 Кбит/сек
Каналы: 2 канала
Расположение каналов: Front: L R
Частота: 48,0 КГц
Битовая глубина: 16 бит
Метод сжатия: С потерями
Размер потока: 114 Мбайт (8%)
Язык: Romanian
Default: Да
Forced: Да






















Мама / Rock’n’Roll Wolf

Формат: TVRip, AVI, XviD, MP3
Язык: Английский,
Субтитры: Норвежские (не отключаемые)
Страна: Франция, СССР, Румыния
Режиссер: Элизабета Бостан
Жанр: мюзикл, фэнтези, семейный
Продолжительность: 01:22:17
Год выпуска: 1976
В ролях: Людмила Гурченко, Михаил Боярский, Олег Попов, Савелий Крамаров, Валентин Манохин, Джордж Михаица, Флориан Питиш, Вера Ивлева, Евгений Герчаков, Наталья Крачковская
Описание: Остроумная музыкальная версия всем известной истории про Серого Волка, семерых козлят (в фильме их пятеро) и их очаровательную героическую Маму.

Видео: 688x496 (1.39:1), 25 fps, XviD build 50 ~2396 kbps avg, 0.28 bit/pixel
Аудио: 48 kHz, MPEG Layer 3, 2 ch, ~128.00 kbps avg










Поделиться:




реклама партнёра


Вернуться к началу
 Профиль Отправить личное сообщение  
 
   Похожие торренты   Автор   Торрент   Размер 
В этой теме нет новых непрочитанных сообщений. Черная мама, белая мама / Black Mama White Mama [боевик, криминал, драма, 1973] BDRip 720p, Dvo [НТВ]

salma3

39 | 11

5.38 ГБ

В этой теме нет новых непрочитанных сообщений. Кровавая мама / Bloody Mama [драма, криминал, 1970] HDTV 1080i, Dvo

salma3

34 | 18

3.87 ГБ

В этой теме нет новых непрочитанных сообщений. Нехорошая мамаша / Скверная мама / Big Bad Mama [боевик, драма, комедия, 1974] BDRip 1080p, Avo

salma3

17 | 2

7.74 ГБ

В этой теме нет новых непрочитанных сообщений. Джек в Стране Чудес / Jack and the Beanstalk [мультфильм, мюзикл, фэнтези, приключения, семейный, DVDRip, Mvo

salma3

26 | 4

1.45 ГБ

В этой теме нет новых непрочитанных сообщений. Скуби-Ду и KISS: Тайна рок-н-ролла / Scooby-Doo! And Kiss: Rock and Roll Mystery (Спайк Брандт, Тони Червоне) [Мультфильм, семейный, 2015] DVDRip, dub [Чистый звук]

Dracon

7 | 0

1.37 ГБ

В этой теме нет новых непрочитанных сообщений. VA - Rock n Roll Rider - 2 [2014, Rock, Rock n Roll, MP3]

salma3

0 | 0

190.73 МБ

В этой теме нет новых непрочитанных сообщений. VA - Rock n Roll Rider [2014, Rock n Roll, MP3]

salma3

0 | 0

187.4 МБ


Начать новую тему Ответить на тему  [ 1 сообщение ] 




Для Мосгорсуда, Роскомнадзора и рекламодателей:: mosgorsud-torrent[собачка]yandex.ru