Торрент файл
скачать торрент магнет ссылка Добавлен: 01 апр 2012, 02:46
Размер: 4.3 ГБ
Сидеров: 80
Личеров: 27
Автор

СообщениеДобавлено: 01 апр 2012, 02:46 

Не в сети
Администратор
Дата регистрации:
08 апр 2010, 18:00
Спасибо: 1075 / 220
Сообщения: 17131
Гостья из будущего (5 серий)



Перевод: Не требуется
Субтитры: есть (вшитые, отключаемые)
Формат: DVDRip-AVC, MKV, H.264, AC3
Режиссер: Павел Арсенов
Жанр: фантастика, приключения
Продолжительность: 01:03:28 + 01:03:51 + 01:03:11 + 01:03:28 + 01:03:11
Год выпуска: 1984

В ролях: Наташа Гусева, Алеша Фомкин, Илюша Наумов, Вячеслав Невинный, Михаил Кононов, Елена Метелкина, Евгений Герасимов, Владимир Носик, Игорь Ясулович, Владимир Харитонов, Елена Перова, Андрей Жиров, Елена Цыплакова, Марьяна Ионесян, Вячеслав Баранов, Наталья Варлей, Мария Стерникова, Татьяна Божок, Екатерина Васильева, Андрей Градов, Георгий Бурков, Валентина Талызина, Людмила Аринина, Юрий Григорьев, Борис Щербаков, Рубен Симонов

Описание: Борьба с космическими пиратами, захватывающее путешествие во времени, знакомство с девочкой из будущего Алисой Селезневой — вот к чему привел обычный поход за кефиром мальчика Колю из 6 — Б класса. Фильм поставлен по мотивам фантастического романа Кира Булычева «Сто лет тому вперед».



Видео: 720x544p (4:3), 25.000 fps, AVC MPEG-4 (x264), High@L3.1 ~1 490 Кbps avg, 0.152 bit/pixel
Аудио: 48 kHz, AC3 Dolby Digital, 3/2 (L,C,R,l,r) + LFE ch, ~448 kbps
Тех. данные идентичны


Complete name: D:\Новая папка(1)\Фильмы\gost'ya_iz_budusch'ego_[tfile.ru]\gost'ya_iz_budusch'ego_seria01_[tfile.ru].mkv
Format: Matroska
Format version: Version 1
File size: 881 MiB
Duration: 1h 3mn
Overall bit rate: 1 941 Kbps
Encoded date: UTC 2011-07-30 17:07:57
Writing application: mkvmerge v2.1.0 ('Another Place To Fall') built on Aug 19 2007 13:40:07
Writing library: libebml v0.7.7 + libmatroska v0.8.1

Video
ID: 1
Format: AVC
Format/Info: Advanced Video Codec
Format profile: High@L3.1
Format settings, CABAC: Yes
Format settings, ReFrames: 4 frames
Codec ID: V_MPEG4/ISO/AVC
Duration: 1h 3mn
Bit rate: 1 490 Kbps
Width: 720 pixels
Height: 544 pixels
Display aspect ratio: 4:3
Frame rate: 25.000 fps
Color space: YUV
Chroma subsampling: 4:2:0
Bit depth: 8 bits
Scan type: Progressive
Bits/(Pixel*Frame): 0.152
Stream size: 660 MiB (75%)
Title: video
Writing library: x264 core 115 r1995 c1e60b9
Encoding settings: cabac=1 / ref=3 / deblock=1:-1:-1 / analyse=0x3:0x113 / me=umh / subme=7 / psy=1 / psy_rd=1.00:0.15 / mixed_ref=1 / me_range=32 / chroma_me=1 / trellis=1 / 8x8dct=1 / cqm=0 / deadzone=21,11 / fast_pskip=1 / chroma_qp_offset=-3 / threads=6 / sliced_threads=0 / nr=0 / decimate=1 / interlaced=0 / bluray_compat=0 / constrained_intra=0 / bframes=3 / b_pyramid=2 / b_adapt=1 / b_bias=0 / direct=1 / weightb=1 / open_gop=0 / weightp=2 / keyint=250 / keyint_min=25 / scenecut=40 / intra_refresh=0 / rc_lookahead=40 / rc=2pass / mbtree=1 / bitrate=1490 / ratetol=1.0 / qcomp=0.60 / qpmin=0 / qpmax=69 / qpstep=4 / cplxblur=20.0 / qblur=0.5 / vbv_maxrate=17500 / vbv_bufsize=14000 / nal_hrd=none / ip_ratio=1.40 / aq=1:1.00
Default: Yes
Forced: No

Audio
ID: 2
Format: AC-3
Format/Info: Audio Coding 3
Mode extension: CM (complete main)
Codec ID: A_AC3
Duration: 1h 3mn
Bit rate mode: Constant
Bit rate: 448 Kbps
Channel(s): 6 channels
Channel positions: Front: L C R, Side: L R, LFE
Sampling rate: 48.0 KHz
Bit depth: 16 bits
Compression mode: Lossy
Stream size: 203 MiB (23%)
Title: sound
Language: Russian
Default: Yes
Forced: No

Text
ID: 3
Format: UTF-8
Codec ID: S_TEXT/UTF8
Codec ID/Info: UTF-8 Plain Text
Title: sub
Language: Russian
Default: Yes
Forced: No























Поделиться:




реклама партнёра


Вернуться к началу
 Профиль Отправить личное сообщение  
 
   Похожие торренты   Автор   Торрент   Размер 
В этой теме нет новых непрочитанных сообщений. Трансеры / Полицейский будущего / Trancers / Future Cop [Фантастика, Боевик, 1984] BDRemux, Avo

salma3

7 | 2

16.81 ГБ

В этой теме нет новых непрочитанных сообщений. Трансеры / Полицейский будущего / Trancers / Future Cop [Фантастика, Боевик, 1984] BDRip 720p, Avo

salma3

40 | 7

5.97 ГБ

В этой теме нет новых непрочитанных сообщений. Гостья / The Host [фантастика, боевик, триллер, мелодрама, приключения, 2013] DVD5, Dub+Sub [Лицензия]

Dracon

28 | 4

4.37 ГБ

В этой теме нет новых непрочитанных сообщений. Супергёрл / Supergirl [фантастика, фэнтези, боевик, приключения, 1984] DVDRip-AVC, Avo [Director's Cut]

salma3

18 | 2

2.79 ГБ

В этой теме нет новых непрочитанных сообщений. Земля будущего / Tomorrowland (Брэд Бёрд) [фантастика, боевик, детектив, приключения, 2015] Blu-Ray, Dub+Sub [Лицензия]

Dracon

84 | 13

37.41 ГБ

В этой теме нет новых непрочитанных сообщений. Земля будущего / Tomorrowland (Брэд Бёрд) [фантастика, боевик, детектив, приключения, 2015] HDRip, Dub [iTunes]

Dracon

141 | 1

2.05 ГБ

В этой теме нет новых непрочитанных сообщений. Земля будущего / Tomorrowland (Брэд Бёрд) [фантастика, боевик, детектив, приключения, 2015] HDRip, Dub [iTunes]

Dracon

892 | 17

1.42 ГБ


СообщениеДобавлено: 27 июн 2016, 01:39 

Не в сети
Дата регистрации:
22 июн 2016, 17:54
Спасибо: 0 / 1
Сообщения: 3
PriZraK писал(а):
Re: Гостья из будущего (5 серий) (Павел Арсенов) [1984, фантастика, приключения, DVDRip-AVC]
спасибо


Вернуться к началу
 Профиль Отправить личное сообщение  
 
Начать новую тему Ответить на тему  [ Сообщений: 2 ] 




Для Мосгорсуда, Роскомнадзора и рекламодателей:: mosgorsud-torrent[собачка]yandex.ru