Торрент файл
скачать торрент магнет ссылка Добавлен: 01 апр 2012, 02:45
Размер: 1.46 ГБ
Сидеров: 32
Личеров: 5
Автор

СообщениеДобавлено: 01 апр 2012, 02:45 

Не в сети
Администратор
Дата регистрации:
08 апр 2010, 18:00
Спасибо: 1075 / 220
Сообщения: 17131
Лиловый шар


Перевод: Не требуется
Субтитры: есть (английские + русские, вшитые, отключаемые)
Формат: DVDRip-AVC, MKV, H.264, AC3
Режиссер: Павел Арсенов
Жанр: фантастика, приключения
Продолжительность: 01:13:33
Год выпуска: 1987

В ролях: Наташа Гусева, Саша Гусев, Вячеслав Невинный, Борис Щербаков, Вячеслав Баранов, Светлана Харитонова, Игорь Ясулович, Виктор Павлов, Сергей Никоненко, Владимир Носик, Марина Левтова, Юрий Дубровин.

Описание: Алиса Селезнёва со своим отцом и капитаном корабля Зелёным отправляются в космос, чтобы встретиться с кораблём космического археолога Громозеки. Но в точке встречи они находят мёртвый космический корабль «Чёрный странник», покоривший в далёком прошлом множество планет. Герои узнают, что много лет назад «Черный странник» оставил на Земле лиловый шар — бомбу замедленного действия. Расчетный момент подрыва шара — конец XXI века Земли.

[/field]

Видео: 704x400p (16:9), 25.000 fps, AVC MPEG-4 (x264), High@L3.1 ~2 390 Кbps avg, 0.339 bit/pixel
Аудио: 48 kHz, AC3 Dolby Digital, 3/2 (L,C,R,l,r) + LFE ch, ~236 kbps


Complete name: D:\Новая папка(1)\Фильмы\Liloviy shar.mkv
Format: Matroska
Format version: Version 1
File size: 1.46 GiB
Duration: 1h 13mn
Overall bit rate: 2 842 Kbps
Encoded date: UTC 2011-05-07 08:47:19
Writing application: mkvmerge v2.1.0 ('Another Place To Fall') built on Aug 19 2007 13:40:07
Writing library: libebml v0.7.7 + libmatroska v0.8.1

Video
ID: 1
Format: AVC
Format/Info: Advanced Video Codec
Format profile: High@L3.1
Format settings, CABAC: Yes
Format settings, ReFrames: 4 frames
Codec ID: V_MPEG4/ISO/AVC
Duration: 1h 13mn
Bit rate: 2 390 Kbps
Width: 704 pixels
Height: 400 pixels
Display aspect ratio: 16:9
Frame rate: 25.000 fps
Color space: YUV
Chroma subsampling: 4:2:0
Bit depth: 8 bits
Scan type: Progressive
Bits/(Pixel*Frame): 0.339
Stream size: 1.20 GiB (82%)
Title: video
Writing library: x264 core 115 r1947 b5a8ad7
Encoding settings: cabac=1 / ref=3 / deblock=1:-1:-1 / analyse=0x3:0x113 / me=umh / subme=7 / psy=1 / psy_rd=1.00:0.15 / mixed_ref=1 / me_range=32 / chroma_me=1 / trellis=1 / 8x8dct=1 / cqm=0 / deadzone=21,11 / fast_pskip=1 / chroma_qp_offset=-3 / threads=6 / sliced_threads=0 / nr=0 / decimate=1 / interlaced=0 / bluray_compat=0 / constrained_intra=0 / bframes=3 / b_pyramid=2 / b_adapt=1 / b_bias=0 / direct=1 / weightb=1 / open_gop=0 / weightp=2 / keyint=250 / keyint_min=25 / scenecut=40 / intra_refresh=0 / rc_lookahead=40 / rc=2pass / mbtree=1 / bitrate=2390 / ratetol=1.0 / qcomp=0.60 / qpmin=0 / qpmax=69 / qpstep=4 / cplxblur=20.0 / qblur=0.5 / vbv_maxrate=17500 / vbv_bufsize=14000 / nal_hrd=none / ip_ratio=1.40 / aq=1:1.00
Default: Yes
Forced: No

Audio
ID: 2
Format: AC-3
Format/Info: Audio Coding 3
Mode extension: CM (complete main)
Codec ID: A_AC3
Duration: 1h 13mn
Bit rate mode: Constant
Bit rate: 448 Kbps
Channel(s): 6 channels
Channel positions: Front: L C R, Side: L R, LFE
Sampling rate: 48.0 KHz
Bit depth: 16 bits
Compression mode: Lossy
Stream size: 236 MiB (16%)
Title: audio
Language: Russian
Default: Yes
Forced: No

Text #1
ID: 3
Format: UTF-8
Codec ID: S_TEXT/UTF8
Codec ID/Info: UTF-8 Plain Text
Title: sub-ru
Language: Russian
Default: Yes
Forced: No

Text #2
ID: 4
Format: UTF-8
Codec ID: S_TEXT/UTF8
Codec ID/Info: UTF-8 Plain Text
Title: sub-eng
Language: English
Default: No
Forced: No





















Поделиться:




реклама партнёра


Вернуться к началу
 Профиль Отправить личное сообщение  
 
   Похожие торренты   Автор   Торрент   Размер 
В этой теме нет новых непрочитанных сообщений. Малыши из мусорного бачка / The Garbage Pail Kids Movie [фантастика, комедия, приключения, семейный, 1987] DVDRip, Avo

salma3

42 | 10

2 ГБ

В этой теме нет новых непрочитанных сообщений. Звездный путь: Следующее поколение / Star Trek: The Next Generation / 1-7 сезоны 1-178 серии из 178 [фантастика, боевик, приключения, 1987-1994] DVDRip, Mvo [AXN Sci-fi]

salma3

8 | 19

88.84 ГБ

В этой теме нет новых непрочитанных сообщений. Стальной рассвет / Steel Dawn [Фантастика, боевик, приключения, 1987] DVD9, Dvo

salma3

13 | 5

6.84 ГБ

В этой теме нет новых непрочитанных сообщений. Стальной рассвет / Steel Dawn [фантастика, боевик, приключения, 1987] BDRemux 1080p, Mvo

salma3

26 | 4

19.44 ГБ

В этой теме нет новых непрочитанных сообщений. Внутреннее пространство / Innerspace [фантастика, комедия, приключения, 1987] BDRip 1080p, 5Avo+3Mvo+Dub

salma3

35 | 1

12.94 ГБ

В этой теме нет новых непрочитанных сообщений. Черри 2000 / Cherry 2000 [фантастика, боевик, приключения, 1987] BDRip 720p, Mvo+2Dvo+Avo+Sub

salma3

62 | 8

4.22 ГБ

В этой теме нет новых непрочитанных сообщений. Мадрид, 1987 год / Madrid, 1987 (Давид Труэба / David Trueba) [2011г., драма, DVDRip] Sub

Alfredovich

58 | 5

1.45 ГБ


Начать новую тему Ответить на тему  [ 1 сообщение ] 




Для Мосгорсуда, Роскомнадзора и рекламодателей:: mosgorsud-torrent[собачка]yandex.ru