Торрент файл
скачать торрент магнет ссылка Добавлен: 29 фев 2012, 21:57
Размер: 744.58 МБ
Сидеров: 2
Личеров: 11
Автор

СообщениеДобавлено: 29 фев 2012, 21:57 

Не в сети
Супермодератор
Аватара пользователя
Дата регистрации:
11 апр 2010, 18:10
Спасибо: 5966 / 7
Сообщения: 56761


[b]От Буга до Вислы (2 серии)[/b]


Формат: DVDRip-AVC, MKV, H.264, AC3

Режиссер: Тимофей Левчук

Жанр: военный

Продолжительность: 01:04:53 + 01:07:37

Год выпуска: 1980

В ролях: , Лесь Сердюк, Николай Гринько, Анатолий Пазенко, Евгений Паперный, Леонид Яновский, Александр Денисов, , Михаил Горносталь, Улдис Пуцитис, Улдис Лиелдидж, , Иван Гаврилюк, Яков Козлов, Станислав Микульский, Петерис Гаудиньш, Зураб Капианидзе, Александр Мовчан, Осип (Иосиф) Найдук, Евгений Пашин, Андрей Праченко, Юрис Стренга, Наталия Сумская, Лембит Ульфсак, Нина Колчина-Бунь, Игорь Слободской, Богдан Ступка, Януш Зербст

Описание: Широкоформатный фильм-дилогия, состоящая из двух частей — «Действовать самостоятельно», «Смерти наперекор» — завершает киноэпопею «Дума о Ковпаке». Картина повествует о последнем рейде украинской партизанской дивизии имени С.А.Ковпака по руководством П.П.Вершигоры в тыл врага в 1943—1944 годах, выходе ее к государственной границе СССР и Польши, интернациональной помощи польскому народу в освобождении от фашистких захватчиков.



Видео (Серия 1 "Действовать самостоятельно"): 704x312 (2.25:1), 25.000 fps, AVC (х264), High@L5.1, ~670 kbps, 0.122 bit/pixel

Видео (Серия 2 "Смерти наперекор"): 720x320 (2.25:1), 25.000 fps, AVC (х264), High@L5.1, ~642 kbps, 0.111 bit/pixel

Аудио: 48 kHz, AC3 Dolby Digital, 2/0 (L,R) ch, ~128 kbps

Релиз-Группа




Общее
Уникальный идентификатор: 250514175207080059425192662774546071758 (0xBC7746706490FB6C926F54F8AA2680CE)
Полное имя: D:\_НАШЕ_КИНО\ot_buga_do_visli_[tfile.ru]\ot_buga_do_visli_s01_[tfile.ru].mkv
Формат: Matroska
Размер файла: 371 Мбайт
Продолжительность: 1 ч. 4 м.
Общий поток: 800 Кбит/сек
Дата кодирования: UTC 2011-05-08 04:31:40
Программа кодирования: mkvmerge v3.3.0 ('Language') built on Mar 24 2010 14:59:24
Библиотека кодирования: libebml v0.8.0 + libmatroska v0.9.0

Видео
Идентификатор: 1
Формат: AVC
Формат/Информация: Advanced Video Codec
Профиль формата: High@L5.1
Параметр CABAC формата: Да
Параметр ReFrames формата: 4 кадры
Идентификатор кодека: V_MPEG4/ISO/AVC
Продолжительность: 1 ч. 4 м.
Битрейт: 670 Кбит/сек
Ширина: 704 пикс.
Высота: 312 пикс.
Соотношение сторон: 2,25:1
Частота кадров: 25,000 кадр/сек
Цветовое пространство: YUV
Подвыборка цветности: 4:2:0
Битовая глубина: 8 бит
Тип развёртки: Прогрессивная
Бит/(Пиксели*Кадры): 0.122
Размер потока: 304 Мбайт (82%)
Библиотека кодирования: x264 core 92 r1510 33d382a
Настройки программы: cabac=1 / ref=3 / deblock=1:0:0 / analyse=0x3:0x113 / me=hex / subme=7 / psy=1 / psy_rd=1.00:0.00 / mixed_ref=1 / me_range=16 / chroma_me=1 / trellis=1 / 8x8dct=1 / cqm=0 / deadzone=21,11 / fast_pskip=1 / chroma_qp_offset=-2 / threads=3 / sliced_threads=0 / nr=0 / decimate=1 / interlaced=0 / constrained_intra=0 / bframes=3 / b_pyramid=2 / b_adapt=1 / b_bias=0 / direct=3 / wpredb=1 / wpredp=2 / keyint=250 / keyint_min=25 / scenecut=40 / intra_refresh=0 / rc_lookahead=40 / rc=2pass / mbtree=1 / bitrate=670 / ratetol=1.0 / qcomp=0.60 / qpmin=10 / qpmax=51 / qpstep=4 / cplxblur=20.0 / qblur=0.5 / ip_ratio=1.40 / aq=1:1.00

Аудио
Идентификатор: 2
Формат: AC-3
Формат/Информация: Audio Coding 3
Расширение режима: CM (complete main)
Идентификатор кодека: A_AC3
Продолжительность: 1 ч. 4 м.
Вид битрейта: Постоянный
Битрейт: 128 Кбит/сек
Канал(ы): 2 канала(ов)
Расположение каналов: Front: L R
Частота: 48,0 КГц
Битовая глубина: 16 бит
Метод сжатия: С потерями
Размер потока: 59,4 Мбайт (16%)


Общее
Уникальный идентификатор: 200538401581644957466531603357478048032 (0x96DE4A900D66213CBC60A59DA00A5120)
Полное имя: D:\_НАШЕ_КИНО\ot_buga_do_visli_[tfile.ru]\ot_buga_do_visli_s02_[tfile.ru].mkv
Формат: Matroska
Размер файла: 373 Мбайт
Продолжительность: 1 ч. 7 м.
Общий поток: 772 Кбит/сек
Дата кодирования: UTC 2011-05-08 12:13:18
Программа кодирования: mkvmerge v3.3.0 ('Language') built on Mar 24 2010 14:59:24
Библиотека кодирования: libebml v0.8.0 + libmatroska v0.9.0

Видео
Идентификатор: 1
Формат: AVC
Формат/Информация: Advanced Video Codec
Профиль формата: High@L5.1
Параметр CABAC формата: Да
Параметр ReFrames формата: 4 кадры
Идентификатор кодека: V_MPEG4/ISO/AVC
Продолжительность: 1 ч. 7 м.
Битрейт: 642 Кбит/сек
Ширина: 720 пикс.
Высота: 320 пикс.
Соотношение сторон: 2,25:1
Частота кадров: 25,000 кадр/сек
Цветовое пространство: YUV
Подвыборка цветности: 4:2:0
Битовая глубина: 8 бит
Тип развёртки: Прогрессивная
Бит/(Пиксели*Кадры): 0.111
Размер потока: 304 Мбайт (81%)
Библиотека кодирования: x264 core 92 r1510 33d382a
Настройки программы: cabac=1 / ref=3 / deblock=1:0:0 / analyse=0x3:0x113 / me=hex / subme=7 / psy=1 / psy_rd=1.00:0.00 / mixed_ref=1 / me_range=16 / chroma_me=1 / trellis=1 / 8x8dct=1 / cqm=0 / deadzone=21,11 / fast_pskip=1 / chroma_qp_offset=-2 / threads=3 / sliced_threads=0 / nr=0 / decimate=1 / interlaced=0 / constrained_intra=0 / bframes=3 / b_pyramid=2 / b_adapt=1 / b_bias=0 / direct=3 / wpredb=1 / wpredp=2 / keyint=250 / keyint_min=25 / scenecut=40 / intra_refresh=0 / rc_lookahead=40 / rc=2pass / mbtree=1 / bitrate=642 / ratetol=1.0 / qcomp=0.60 / qpmin=10 / qpmax=51 / qpstep=4 / cplxblur=20.0 / qblur=0.5 / ip_ratio=1.40 / aq=1:1.00

Аудио
Идентификатор: 2
Формат: AC-3
Формат/Информация: Audio Coding 3
Расширение режима: CM (complete main)
Идентификатор кодека: A_AC3
Продолжительность: 1 ч. 7 м.
Вид битрейта: Постоянный
Битрейт: 128 Кбит/сек
Канал(ы): 2 канала(ов)
Расположение каналов: Front: L R
Частота: 48,0 КГц
Битовая глубина: 16 бит
Метод сжатия: С потерями
Размер потока: 61,9 Мбайт (17%)

Серия 1 "Действовать самостоятельно"

























Серия 2 "Смерти наперекор"

























Поделиться:




реклама партнёра


Вернуться к началу
 Профиль Отправить личное сообщение  
 
   Похожие торренты   Автор   Торрент   Размер 
В этой теме нет новых непрочитанных сообщений. Овод (1-3 серии из 3) [драма, исторический, экранизация, 1980] DVDRip-AVC

salma3

13 | 16

3.75 ГБ

В этой теме нет новых непрочитанных сообщений. Последнее метро / Le dernier metro [Драма, мелодрама, военный, 1980] HDRip, Mvo

salma3

13 | 1

1.37 ГБ

В этой теме нет новых непрочитанных сообщений. Иди и смотри [Серии 1 - 2 из 2 + доп.материалы] (Элем Климов) [Драма, Военный, 1985] DVDRip

Dracon

1 | 2

2.16 ГБ

В этой теме нет новых непрочитанных сообщений. Диверсант 2: Конец войны / Серии: 1-10 из 10 (Игорь Зайцев) [2007, Военный боевик, DVDRip - AVC]

marya111

6 | 5

6.84 ГБ

В этой теме нет новых непрочитанных сообщений. Огарева, 6 [криминал, 1980] DVDRip-AVC

salma3

9 | 5

1.45 ГБ

В этой теме нет новых непрочитанных сообщений. Кэрни / Carny [драма, 1980] DVDRip, Dvo [НТВ+]

salma3

11 | 4

1.45 ГБ

В этой теме нет новых непрочитанных сообщений. По лезвию бритвы (1-8 серии из 8) [драма, военный, 2014] WEB-DL-720p

salma3

209 | 93

9.95 ГБ


Начать новую тему Ответить на тему  [ 1 сообщение ] 




Для Мосгорсуда, Роскомнадзора и рекламодателей:: mosgorsud-torrent[собачка]yandex.ru