Торрент файл
скачать торрент магнет ссылка Добавлен: 29 фев 2012, 21:49
Размер: 745.11 МБ
Сидеров: 2
Личеров: 12
Автор

СообщениеДобавлено: 29 фев 2012, 21:49 

Не в сети
Супермодератор
Аватара пользователя
Дата регистрации:
11 апр 2010, 18:10
Спасибо: 5799 / 7
Сообщения: 56779


Славный малый (Новгородцы / Мстители)


Формат: DVDRip-AVC, MKV, H.264, AC3

Режиссер: Борис Барнет
Жанр: комедия, военный

Продолжительность: 01:06:29
Год выпуска: 1942

В ролях: Евгений Григорьев (II), Ольга Якунина, Елена Сипавина, Николай Боголюбов, Виктор Добровольский

Описание: Музыкальная героическая комедия. По повести Петра Павленко «Мстители».

История французского летчика, сбитого фашистами и попавшего в партизанский отряд на территории Новгородской области.

Фильм на экраны не выпущен.




Видео: 640x480 (1.33:1), 25 fps, AVC (x264), High@L5.1, ~1657 kbps avg, 0.179 bit/pixel

Аудио: 48 kHz, AC3 Dolby Digital, 2/0 (L,R) ch, ~192 kbps avg

Релиз-Группа




Общее
Уникальный идентификатор: 251524542073738299461738895013141731722 (0xBD39DD5F2122A0DBB992663CBE92D98A)
Полное имя: D:\slavnyj_malyj_[tfile.ru].mkv
Формат: Matroska
Размер файла: 745 Мбайт
Продолжительность: 1 ч. 6 м.
Общий поток: 1567 Кбит/сек
Дата кодирования: UTC 2011-05-22 03:48:25
Программа кодирования: mkvmerge v4.6.0 ('Still Crazy After All These Years') сборка от Apr1 2011 21:01:49
Библиотека кодирования: libebml v1.2.0 + libmatroska v1.1.0

Видео
Идентификатор: 1
Формат: AVC
Формат/Информация: Advanced Video Codec
Профиль формата: High@L5.1
Параметр CABAC формата: Да
Параметр ReFrames формата: 4 кадры
Идентификатор кодека: V_MPEG4/ISO/AVC
Продолжительность: 1 ч. 6 м.
Битрейт: 1373 Кбит/сек
Ширина: 640 пикс.
Высота: 480 пикс.
Соотношение сторон: 4:3
Частота кадров: 25,000 кадр/сек
Цветовое пространство: YUV
Подвыборка цветности: 4:2:0
Битовая глубина: 8 бит
Тип развёртки: Прогрессивная
Бит/(Пиксели*Кадры): 0.179
Размер потока: 639 Мбайт (86%)
Библиотека кодирования: x264 core 115 r1937 aa21558
Настройки программы: cabac=1 / ref=3 / deblock=1:0:0 / analyse=0x3:0x113 / me=hex / subme=7 / psy=1 / psy_rd=1.00:0.10 / mixed_ref=1 / me_range=16 / chroma_me=1 / trellis=1 / 8x8dct=1 / cqm=0 / deadzone=21,11 / fast_pskip=1 / chroma_qp_offset=-3 / threads=3 / sliced_threads=0 / nr=0 / decimate=1 / interlaced=0 / bluray_compat=0 / constrained_intra=0 / bframes=3 / b_pyramid=2 / b_adapt=1 / b_bias=0 / direct=1 / weightb=1 / open_gop=0 / weightp=2 / keyint=250 / keyint_min=25 / scenecut=40 / intra_refresh=0 / rc_lookahead=40 / rc=2pass / mbtree=1 / bitrate=1373 / ratetol=1.0 / qcomp=0.60 / qpmin=0 / qpmax=69 / qpstep=4 / cplxblur=20.0 / qblur=0.5 / ip_ratio=1.40 / aq=1:1.00

Аудио
Идентификатор: 2
Формат: AC-3
Формат/Информация: Audio Coding 3
Расширение режима: CM (complete main)
Идентификатор кодека: A_AC3
Продолжительность: 1 ч. 6 м.
Вид битрейта: Постоянный
Битрейт: 192 Кбит/сек
Канал(ы): 2 канала(ов)
Расположение каналов: Front: L R
Частота: 48,0 КГц
Битовая глубина: 16 бит
Метод сжатия: С потерями
Размер потока: 91,3 Мбайт (12%)

Сценаристы: Алексей Каплер, Пётр Павленко

Оператор: Сергей Иванов (III)

Композиторы: Никита Богословский, Николай Крюков

Художники: Владимир Камский, Лев Мильчин

Страна: СССР

Производство: ЦОКС

Год: 1942


























Поделиться:




реклама партнёра


Вернуться к началу
 Профиль Отправить личное сообщение  
 
   Похожие торренты   Автор   Торрент   Размер 
В этой теме нет новых непрочитанных сообщений. Рейс 1942 / Flight World War II [Фантастика, боевик, приключения, военный, 2015] BDRip, Avo

salma3

1724 | 113

938.85 МБ

В этой теме нет новых непрочитанных сообщений. Рейс 1942 / Flight World War II [Фантастика, боевик, приключения, военный, 2015] BDRip 1080p, Avo

salma3

336 | 40

8.21 ГБ

В этой теме нет новых непрочитанных сообщений. Недооформлен Как правильно закопать после расстрела ("Партизаны в степях Украины", 1942) (Алексей Меняйлов) [2014, военный, подвиг, драма, WEBRip] Данный торрент является блокированным, причина: недооформленный торрент

vairgin

36 | 33

579.28 МБ

В этой теме нет новых непрочитанных сообщений. Славный минет [2014 г., Amateur, CamRip]

Dievas

4 | 2

32.16 МБ

В этой теме нет новых непрочитанных сообщений. Гордость янки / The Pride of the Yankees [Мелодрама, биография, спорт, 1942] DVDRip, Mvo

salma3

52 | 23

1.37 ГБ

В этой теме нет новых непрочитанных сообщений. Мстители: Гримм / Avengers Grimm [фантастика, фэнтези, боевик, приключения, 2015] WEB-DL 720p, Avo+Sub

salma3

432 | 23

2.69 ГБ

В этой теме нет новых непрочитанных сообщений. Мстители: Гримм / Avengers Grimm [фантастика, фэнтези, боевик, приключения, 2015] WEB-DLRip, Avo

salma3

669 | 27

1.37 ГБ


Начать новую тему Ответить на тему  [ 1 сообщение ] 




Для Мосгорсуда, Роскомнадзора и рекламодателей:: mosgorsud-torrent[собачка]yandex.ru