Торрент файл
скачать торрент магнет ссылка Добавлен: 29 фев 2012, 21:46
Размер: 1.46 ГБ
Сидеров: 87
Личеров: 5
Автор

СообщениеДобавлено: 29 фев 2012, 21:46 

Не в сети
Супермодератор
Аватара пользователя
Дата регистрации:
11 апр 2010, 18:10
Спасибо: 5798 / 7
Сообщения: 56779
Бриллиантовая рука



Формат: DVDRip-AVC, MKV, H.264, AC3
Режиссер: Леонид Гайдай
Жанр: комедия, криминал, приключения, семейный
Продолжительность: 01:34:19
Год выпуска: 1968

В ролях: Юрий Никулин, Андрей Миронов, Анатолий Папанов, Нина Гребешкова, Нонна Мордюкова, Светлана Светличная, Станислав Чекан, Владимир Гуляев, Елена Мельникова, Леонид Каневский, Игорь Ясулович

Описание: Кинороман из жизни контрабандистов с прологом и эпилогом. В южном городке орудует шайка «валютчиков», возглавляемая Шефом и его помощником Графом. Скромный советский служащий и примерный семьянин Семен Семеныч Горбунков отправляется в зарубежный круиз на теплоходе, на котором также плывет Граф, который должен забрать бриллианты в одном из восточных городов и провезти их в загипсованной руке. Но в силу недоразумения вместо жулика на условленном месте падает ничего не подозревающий Семен Семенович и драгоценный гипс накладывают ему. Вот тут-то все и начинается…



Видео: 1024 x 456 (2.246), 25.000 fps, AVC х264, High@L4.0, ~ 1760Kbps Kbps, 0.151 bit/pixel
Аудио: 48 kHz, AC3 Dolby Digital, 3/2 (L,C,R,l,r) + LFE ch, ~448 kbps

Полная реставрация "Крупный план"
General
Unique ID: 198827054517359486902308055695125031821 (0x9594B2A35807A60EA7C6BCFF040EAB8D)
Complete name: F:\Мои релизы\Все релизы 8\brilliantovaja_ryka_[tfile.ru].mkv
Format: Matroska
File size: 1.46 GiB
Duration: 1h 34mn
Overall bit rate: 2 210 Kbps
Movie name: Бриллиантовая рука (196 ® RZ-7
Encoded date: UTC 2010-10-20 20:18:05
Writing application: mkvmerge v3.3.0 ('Language') built on Mar 24 2010 14:59:24
Writing library: libebml v0.8.0 + libmatroska v0.9.0

Video
ID: 1
Format: AVC
Format/Info: Advanced Video Codec
Format profile: High@L4.0
Format settings, CABAC: Yes
Format settings, ReFrames: 16 frames
Codec ID: V_MPEG4/ISO/AVC
Duration: 1h 34mn
Bit rate: 1 760 Kbps
Width: 1 024 pixels
Height: 456 pixels
Display aspect ratio: 2.25:1
Frame rate: 25.000 fps
Color space: YUV
Chroma subsampling: 4:2:0
Bit depth: 8 bits
Scan type: Progressive
Bits/(Pixel*Frame): 0.151
Stream size: 1.13 GiB (78%)
Title: МОСФИЛЬМ, 1968, цв., 10 ч., 2735 м., ш/э, 100 мин. В ролях: Юрий Никулин, Нина Гребешкова, Андрей Миронов, Анатолий Папанов, Станислав Чекан, Нонна Мордюкова, Светлана Светличная, Владимир Гуляев, Григорий Шпигель, Леонид Каневский, Роман Филиппов, Игорь Ясулович, Андрей Файт, Александр Хвыля, Максим Никулин. Режиссер-постановщик: Леонид Гайдай. Авторы сценария: Морис Слободской, Яков Костюковский, Леонид Гайдай. Оператор-постановщик: Игорь Черных. Художник-постановщик: Феликс Ясюкевич. Композитор: Александр Зацепин, текст песен: Леонид Дербенев. Звукорежиссер: Евгения Индлина.
Writing library: x264 core 105 r1724 b02df7b
Encoding settings: cabac=1 / ref=16 / deblock=1:-4:-4 / analyse=0x3:0x133 / me=umh / subme=7 / psy=1 / psy_rd=1.00:0.00 / mixed_ref=1 / me_range=24 / chroma_me=1 / trellis=2 / 8x8dct=1 / cqm=0 / deadzone=21,11 / fast_pskip=0 / chroma_qp_offset=-2 / threads=3 / sliced_threads=0 / nr=0 / decimate=1 / interlaced=0 / constrained_intra=0 / bframes=7 / b_pyramid=2 / b_adapt=2 / b_bias=0 / direct=3 / weightb=1 / open_gop=0 / weightp=2 / keyint=250 / keyint_min=25 / scenecut=40 / intra_refresh=0 / rc_lookahead=60 / rc=2pass / mbtree=1 / bitrate=1760 / ratetol=1.0 / qcomp=0.60 / qpmin=10 / qpmax=51 / qpstep=4 / cplxblur=20.0 / qblur=0.5 / ip_ratio=1.40 / aq=1:1.00
Language: Russian

Audio
ID: 2
Format: AC-3
Format/Info: Audio Coding 3
Mode extension: CM (complete main)
Codec ID: A_AC3
Duration: 1h 34mn
Bit rate mode: Constant
Bit rate: 448 Kbps
Channel(s): 6 channels
Channel positions: Front: L C R, Side: L R, LFE
Sampling rate: 48.0 KHz
Bit depth: 16 bits
Compression mode: Lossy
Delay relative to video: 144ms
Stream size: 302 MiB (20%)
Title: DD5.1 AC3 448kbps (Оригинал)
Language: Russian

Text #1
ID: 3
Format: UTF-8
Codec ID: S_TEXT/UTF8
Codec ID/Info: UTF-8 Plain Text
Title: SRT English
Language: English

Text #2
ID: 4
Format: UTF-8
Codec ID: S_TEXT/UTF8
Codec ID/Info: UTF-8 Plain Text
Title: SRT Русские
Language: Russian

Menu
00:00:00.000: en:Chapter 01
00:04:33.040: en:Chapter 02
00:08:04.720: en:Chapter 03
00:11:08.080: en:Chapter 04
00:15:20.560: en:Chapter 05
00:21:19.120: en:Chapter 06
00:27:16.720: en:Chapter 07
00:33:22.960: en:Chapter 08
00:37:26.800: en:Chapter 09
00:41:40.720: en:Chapter 10
00:47:41.680: en:Chapter 11
00:51:59.440: en:Chapter 12
00:57:22.480: en:Chapter 13
01:01:43.120: en:Chapter 14
01:07:22.960: en:Chapter 15
01:11:22.000: en:Chapter 16
01:19:03.760: en:Chapter 17
01:26:23.920: en:Chapter 18
01:29:05.680: en:Chapter 19
01:32:43.120: en:Chapter 20



































Поделиться:




реклама партнёра


Вернуться к началу
 Профиль Отправить личное сообщение  
 
   Похожие торренты   Автор   Торрент   Размер 
В этой теме нет новых непрочитанных сообщений. Операция «Ы» и другие приключения Шурика (Леонид Гайдай) [Эксцентрическая комедия, мелодрама, криминал, 1965] BDRip 1080p

Dracon

1 | 0

7.16 ГБ

В этой теме нет новых непрочитанных сообщений. Укради у ближнего своего / Ruba al prossimo tuo [мелодрама, комедия, криминал, приключения, 1968] DVDRip, Avo

salma3

18 | 3

1.52 ГБ

В этой теме нет новых непрочитанных сообщений. Левая рука Бога, правая рука Дьявола / Kami no hidarite akuma no migite [ужасы, мистика, 2006] DVDRip, Avo

salma3

6 | 4

1.46 ГБ

В этой теме нет новых непрочитанных сообщений. Даффи / Duffy [комедия, криминал, 1968] DVDRip-AVC. Mvo

salma3

17 | 3

1.44 ГБ

В этой теме нет новых непрочитанных сообщений. Самоа – королева джунглей / Samoa, regina della giungla [мелодрама, криминал, приключения, 1968] DVDRip, Avo+Sub

salma3

306 | 41

1.37 ГБ

В этой теме нет новых непрочитанных сообщений. Самый крупный куш / The Biggest Bundle of Them All [комедия, криминал, 1968] DVDRip, Mvo

salma3

38 | 5

1.45 ГБ

В этой теме нет новых непрочитанных сообщений. Оливер! / Oliver! [мюзикл, драма, криминал, семейный, 1968] HDTV 1080i, Mvo+Sub

salma3

34 | 30

12.77 ГБ


Начать новую тему Ответить на тему  [ 1 сообщение ] 




Для Мосгорсуда, Роскомнадзора и рекламодателей:: mosgorsud-torrent[собачка]yandex.ru