Торрент файл
скачать торрент магнет ссылка Добавлен: 29 фев 2012, 21:31
Размер: 2.9 ГБ
Сидеров: 59
Личеров: 10
Автор

СообщениеДобавлено: 29 фев 2012, 21:31 

Не в сети
Супермодератор
Аватара пользователя
Дата регистрации:
11 апр 2010, 18:10
Спасибо: 5801 / 7
Сообщения: 56779
По секрету всему свету



Формат: DVDRip-AVC, MKV, H.264, AC3
Режиссер: Игорь Добролюбов, Виталий Каневский
Жанр: детский, семейный
Продолжительность: 02:00:10
Год выпуска: 1976

В ролях: Владимир Станкевич, Алеша Сазонов, Александр Леньков, Валентина Теличкина, Федор Никитин, Лия Ахеджакова, Анатолий Столбов, Саша Шерстобаев, Сережа Беляк, Георгий (Жора) Белов, Регина Корохова, Александра Климова, Аркадий Трусов, Борис Гитин, Анатолий Кузнецов, Александр Гай

Описание: Двухсерийный детский телефильм снятый кинорежиссёрами Игорем Добролюбовым, Юрием Оксанченко, Владиславом Поповым, Дмитрием Михлеевым и Виталием Каневским, по мотивам «Денискиных рассказов» Виктора Драгунского.
Секрет первый. Денис Кораблёв должен рассчитаться с Лёвкой Буриным, за то, что он ударил его пеналом по голове. Но когда Денис и Мишка услышали Лёвкин рассказ о тех вещах, которые тот любит, то вся злость прошла и они расстались добрыми друзьями.
Секрет второй. Мамина знакомая Марья Петровна обещала Денису взять его на дачу, но не сдержала своего слова. Пытаясь примириться с обиженным мальчиком, она не нашла ничего лучше, как повторить обман, обещая на этот раз настоящюю будёновскую саблю.
Секрет третий. Ваня Дыхов построил самый настоящий двухместный велосипед. Ему помогали все ребята, но больше всех Денис. Вдвоём с Ваней они и поехали опробовать машину. Когда они отдыхали в парке, к ним подошёл незнакомый мальчишка и попросил дать велосипед для поездки в аптеку за лекарством тяжело больной бабушке. Ребята ждали его до самого вечера, пока поняли, что ждут напрасно.
Секрет четвёртый. Денис с папой поехали на выходные в соседнюю деревню, куда их давно звал папин друг, дядя Саша. У дяди Саши было важное дело и он попросил Виктора сесть за руль. На просёлочной дороге под колёса их машины выскочила девочка и папа Дениса не раздумывая резко вывернул руль. Машина перевернулась, дядя Саша и Денис отделались ушибами. Папа сломал руку, но был очень рад тому, что девочка осталась невредимой.




Видео: 720 x 552 (1.32:1), 25.000 fps, AVC, х264, High@L4.1, ~1530 kbps avg, 0.154 bit/pixel
Аудио: 48 kHz, AC3 Dolby Digital, 2/0 (L,R) ch, ~192 kbps


Рип: jeenart
General
Unique ID: 240585334146370538711755547490374484068 (0xB4FF0CC7A445A0B3AA88BFE4C3B18064)
Complete name: F:\Мои релизы\Все релизы 9\po_sekretu_[tfile.ru]\po_sekretu_[tfile.ru].mkv
Format: Matroska
File size: 1.45 GiB
Duration: 2h 0mn
Overall bit rate: 1 724 Kbps
Encoded date: UTC 2011-06-20 10:48:42
Writing application: mkvmerge v4.6.0 ('Still Crazy After All These Years') сборка от Apr1 2011 21:01:49
Writing library: libebml v1.2.0 + libmatroska v1.1.0

Video
ID: 1
Format: AVC
Format/Info: Advanced Video Codec
Format profile: High@L4.1
Format settings, CABAC: Yes
Format settings, ReFrames: 3 frames
Codec ID: V_MPEG4/ISO/AVC
Duration: 2h 0mn
Bit rate: 1 530 Kbps
Width: 720 pixels
Height: 552 pixels
Display aspect ratio: 4:3
Frame rate: 25.000 fps
Color space: YUV
Chroma subsampling: 4:2:0
Bit depth: 8 bits
Scan type: Progressive
Bits/(Pixel*Frame): 0.154
Stream size: 1.26 GiB (87%)
Writing library: x264 core 115 r1937 aa21558
Encoding settings: cabac=1 / ref=3 / deblock=1:-1:-1 / analyse=0x3:0x113 / me=dia / subme=7 / psy=1 / psy_rd=1.00:0.10 / mixed_ref=1 / me_range=16 / chroma_me=1 / trellis=1 / 8x8dct=1 / cqm=0 / deadzone=21,11 / fast_pskip=1 / chroma_qp_offset=-3 / threads=6 / sliced_threads=0 / nr=0 / decimate=1 / interlaced=0 / bluray_compat=0 / constrained_intra=0 / bframes=1 / b_pyramid=0 / b_adapt=0 / b_bias=0 / direct=0 / weightb=1 / open_gop=0 / weightp=0 / keyint=250 / keyint_min=25 / scenecut=40 / intra_refresh=0 / rc_lookahead=40 / rc=2pass / mbtree=1 / bitrate=1530 / ratetol=1.0 / qcomp=0.60 / qpmin=0 / qpmax=69 / qpstep=4 / cplxblur=20.0 / qblur=0.5 / ip_ratio=1.40 / aq=1:1.00

Audio
ID: 2
Format: AC-3
Format/Info: Audio Coding 3
Mode extension: CM (complete main)
Codec ID: A_AC3
Duration: 2h 0mn
Bit rate mode: Constant
Bit rate: 192 Kbps
Channel(s): 2 channels
Channel positions: Front: L R
Sampling rate: 48.0 KHz
Bit depth: 16 bits
Compression mode: Lossy
Stream size: 165 MiB (11%)






















Удивительные приключения Дениса Кораблева



Формат: DVDRip-AVC, MKV, H.264, AC3
Режиссер: Игорь Пушкарев, Игорь Добролюбов, Виталий Дудин
Жанр: детский, семейный
Продолжительность: 02:07:08
Год выпуска: 1979

В ролях: Сережа Писунов, Алеша Варвашеня, Александр Кудытин, Саша Ходыко, Денис Рунцов, Валера Канищев, Галя Круглякова, Валентина Брауде, Максим Круковский, Оля Сорока, Ёла Санько, Владимир Носик, Светлана Орлова, Александр Гречаный, Юрий Чернов, Любовь Румянцева, Игорь Пушкарев, Федор Никитин, Анатолий Столбов, Георгий Куликов, Регина Корохова, Валентин Букин, Галина Макарова, Тамара Муженко, Дмитрий Миргородский, Геннадий Овсянников, Юрий Червоткин, Александр Воронецкий, Федор Гулевич, Таня Шония, Любовь Соколова, Аркадий Трусов, Сергей Приселков, Владимир Сичкарь, Тамара Дегтярева, Светлана Турова

Описание: Двухсерийный детский телефильм, снятый кинорежиссёрами Игорем Пушкарёвым, Марком Брауде, Игорем Добролюбовым и Виталием Дудиным. Экранизация известных рассказов популярного детского писателя Виктора Юзефовича Драгунского о школьнике Денисе Кораблёве, его друзьях и близких.
«Ровно двадцать пять кило», в котором Денис весьма оригинальным образом выигрывает подписку на журнал «Мурзилка»; «Не хуже вас, цирковых!», в котором он случайно становится «цирковым артистом» (правда, ненадолго); «Девочка на шаре», в котором он встречает свою первую любовь; «Гусиное горло» в котором Денис приготавливает вполне оригинальный подарок для своего друга; «На Садовой большое движение», где он и его приятель оказываются обманутыми нахальным мальчишкой; «Белые амадины», в котором Денис посещает выставку певчих птиц; «Мой знакомый медведь»; а также небольшие эпизоды из других рассказов.




Видео: 720 x 552 (1.32:1), 25.000 fps, AVC, х264, High@L4.1, ~1445 kbps avg, 0.145 bit/pixel
Аудио: 48 kHz, AC3 Dolby Digital, 2/0 (L,R) ch, ~192 kbps


Рип: jeenart
General
Unique ID: 198944160746372999657160990037546593860 (0x95AB406BC1D0D23FA29EDE406E5B6E44)
Complete name: F:\Мои релизы\Все релизы 9\po_sekretu_[tfile.ru]\udivitelnie_priklucenija_[tfile.ru].mkv
Format: Matroska
File size: 1.46 GiB
Duration: 2h 7mn
Overall bit rate: 1 639 Kbps
Encoded date: UTC 2011-06-20 17:07:03
Writing application: mkvmerge v4.6.0 ('Still Crazy After All These Years') сборка от Apr1 2011 21:01:49
Writing library: libebml v1.2.0 + libmatroska v1.1.0

Video
ID: 1
Format: AVC
Format/Info: Advanced Video Codec
Format profile: High@L4.1
Format settings, CABAC: Yes
Format settings, ReFrames: 3 frames
Codec ID: V_MPEG4/ISO/AVC
Duration: 2h 7mn
Bit rate: 1 445 Kbps
Width: 720 pixels
Height: 552 pixels
Display aspect ratio: 4:3
Frame rate: 25.000 fps
Color space: YUV
Chroma subsampling: 4:2:0
Bit depth: 8 bits
Scan type: Progressive
Bits/(Pixel*Frame): 0.145
Stream size: 1.26 GiB (86%)
Writing library: x264 core 115 r1937 aa21558
Encoding settings: cabac=1 / ref=3 / deblock=1:-1:-1 / analyse=0x3:0x113 / me=dia / subme=7 / psy=1 / psy_rd=1.00:0.10 / mixed_ref=1 / me_range=16 / chroma_me=1 / trellis=1 / 8x8dct=1 / cqm=0 / deadzone=21,11 / fast_pskip=1 / chroma_qp_offset=-3 / threads=6 / sliced_threads=0 / nr=0 / decimate=1 / interlaced=0 / bluray_compat=0 / constrained_intra=0 / bframes=1 / b_pyramid=0 / b_adapt=0 / b_bias=0 / direct=0 / weightb=1 / open_gop=0 / weightp=0 / keyint=250 / keyint_min=25 / scenecut=40 / intra_refresh=0 / rc_lookahead=40 / rc=2pass / mbtree=1 / bitrate=1445 / ratetol=1.0 / qcomp=0.60 / qpmin=0 / qpmax=69 / qpstep=4 / cplxblur=20.0 / qblur=0.5 / ip_ratio=1.40 / aq=1:1.00

Audio
ID: 2
Format: AC-3
Format/Info: Audio Coding 3
Mode extension: CM (complete main)
Codec ID: A_AC3
Duration: 2h 7mn
Bit rate mode: Constant
Bit rate: 192 Kbps
Channel(s): 2 channels
Channel positions: Front: L R
Sampling rate: 48.0 KHz
Bit depth: 16 bits
Compression mode: Lossy
Stream size: 175 MiB (12%)




















Поделиться:




реклама партнёра


Вернуться к началу
 Профиль Отправить личное сообщение  
 
   Похожие торренты   Автор   Торрент   Размер 
В этой теме нет новых непрочитанных сообщений. По секрету всему свету  (Роман Просвирнин) [Мелодрама, 2015] SATRip

Dracon

0 | 0

1.27 ГБ

В этой теме нет новых непрочитанных сообщений. По секрету всему свету (Роман Просвирнин) [Мелодрама, 2015] HDTV 1080i

Dracon

71 | 4

5.5 ГБ

В этой теме нет новых непрочитанных сообщений. По секрету всему свету (Роман Просвирнин) [Мелодрама, 2015] HDTVRip 720p

Dracon

320 | 10

2.43 ГБ

В этой теме нет новых непрочитанных сообщений. Приключения Ам Няма / Om Nom Stories [S01-03] (Артур Меркулов, Игорь Сандимиров) [2011-2014, Мультсериал, рисованный, детский, приключения, WEB-DL 720p]

Nickolas3435

510 | 27

845.55 МБ

В этой теме нет новых непрочитанных сообщений. Иди к свету / Go Toward the Light [Драма, 1988] DVDRip-AVC, Dvo

salma3

5 | 2

1.41 ГБ

В этой теме нет новых непрочитанных сообщений. Прогулка по солнечному свету / Walking on Sunshine [мюзикл, мелодрама, 2014] DVDRip, Dub [лицензия]

Dracon

118 | 7

1.46 ГБ

В этой теме нет новых непрочитанных сообщений. Небесные всадники / Sky Riders [боевик, приключения, 1976] DVDRip, Mvo

salma3

29 | 5

1.46 ГБ


Начать новую тему Ответить на тему  [ 1 сообщение ] 




Для Мосгорсуда, Роскомнадзора и рекламодателей:: mosgorsud-torrent[собачка]yandex.ru