Торрент файл
скачать торрент магнет ссылка Добавлен: 29 фев 2012, 21:17
Размер: 746.78 МБ
Сидеров: 0
Личеров: 6
Автор

СообщениеДобавлено: 29 фев 2012, 21:17 

Не в сети
Супермодератор
Аватара пользователя
Дата регистрации:
11 апр 2010, 18:10
Спасибо: 5798 / 7
Сообщения: 56779


[b]Формула любви[/b]


Формат: LowHDRip-AVC, MKV, H.264, AC3

Режиссер: Марк Захаров
Жанр: комедия, мелодрама, приключения

Продолжительность: 01:30:11
Год выпуска: 1984

В ролях: Нодар Мгалоблишвили, , Александр Михайлов (III), , , , , , , Николай Скоробогатов, Анна Андриянова[/field]

Роли дублировали: (Нодар Мгалоблишвили), Геннадий Гладков [вокал] (Семена Фарада)

Описание: Искрящаяся юмором ироническая комедия с созвездием великолепных актеров по мотивам повести Алексея Толстого «Граф Калиостро». В 1780 году Джузеппе Калиостро прибыл в Россию для представления высшей знати. Умыкнув под предлогом лечения отца юную Марью Ивановну, граф пытается влюбить в себя девицу, но безуспешно. В провинциальном поместье, где волею случая оказались путешественники, живет юноша, влюбленный в мраморную статую. С помощью Калиостро он надеется оживить мрамор, но встреча с живой Машей все меняет…



Видео: 592x432 (1.37:1), 23.976 fps, AVC (x264), High@L4.1, ~964 kbps avg, 0.16 bit/pixel

Аудио: 48 kHz, AC3 Dolby Digital, 2/0 (L,R) ch, ~192 kbps avg

Релиз-Группа




Общее
Уникальный идентификатор: 218294160485187400253006471401783738277 (0xA439ED10B7863E20BDE66AE90F58BFA5)
Полное имя: D:\formula_lubwi_R.G.Nashe.Kino_LowHDRipAVC_[tfile.ru].mkv
Формат: Matroska
Размер файла: 747 Мбайт
Продолжительность: 1 ч. 30 м.
Общий поток: 1158 Кбит/сек
Дата кодирования: UTC 2011-07-09 08:44:27
Программа кодирования: mkvmerge v4.6.0 ('Still Crazy After All These Years') сборка от Apr1 2011 21:01:49
Библиотека кодирования: libebml v1.2.0 + libmatroska v1.1.0

Видео
Идентификатор: 1
Формат: AVC
Формат/Информация: Advanced Video Codec
Профиль формата: High@L4.1
Параметр CABAC формата: Да
Параметр ReFrames формата: 4 кадры
Идентификатор кодека: V_MPEG4/ISO/AVC
Продолжительность: 1 ч. 30 м.
Битрейт: 964 Кбит/сек
Ширина: 592 пикс.
Высота: 432 пикс.
Соотношение сторон: 1,370
Частота кадров: 23,976 кадр/сек
Цветовое пространство: YUV
Подвыборка цветности: 4:2:0
Битовая глубина: 8 бит
Тип развёртки: Прогрессивная
Бит/(Пиксели*Кадры): 0.157
Размер потока: 608 Мбайт (81%)
Библиотека кодирования: x264 core 115 r1937 aa21558
Настройки программы: cabac=1 / ref=3 / deblock=1:0:0 / analyse=0x3:0x113 / me=hex / subme=7 / psy=1 / psy_rd=1.00:0.10 / mixed_ref=1 / me_range=16 / chroma_me=1 / trellis=1 / 8x8dct=1 / cqm=0 / deadzone=21,11 / fast_pskip=1 / chroma_qp_offset=-3 / threads=3 / sliced_threads=0 / nr=0 / decimate=1 / interlaced=0 / bluray_compat=0 / constrained_intra=0 / bframes=3 / b_pyramid=2 / b_adapt=1 / b_bias=0 / direct=1 / weightb=1 / open_gop=0 / weightp=2 / keyint=250 / keyint_min=23 / scenecut=40 / intra_refresh=0 / rc_lookahead=40 / rc=2pass / mbtree=1 / bitrate=964 / ratetol=1.0 / qcomp=0.60 / qpmin=0 / qpmax=69 / qpstep=4 / cplxblur=20.0 / qblur=0.5 / ip_ratio=1.40 / aq=1:1.00

Аудио
Идентификатор: 2
Формат: AC-3
Формат/Информация: Audio Coding 3
Расширение режима: CM (complete main)
Идентификатор кодека: A_AC3
Продолжительность: 1 ч. 30 м.
Вид битрейта: Постоянный
Битрейт: 192 Кбит/сек
Канал(ы): 2 канала(ов)
Расположение каналов: Front: L R
Частота: 48,0 КГц
Битовая глубина: 16 бит
Метод сжатия: С потерями
Размер потока: 124 Мбайт (17%)

http://www.kino-teatr.ru/kino/movie/sov/7566/annot/

Критика

"...Знаменитый маг и предсказатель человеческих судеб граф Калиостро приезжает в далекую и загадочную Россию, где его плутоватые слуги вдохновенным дуэтом поют незабываемые куплеты "Uno momento" в надежде покорить сердце русской красавицы...

Да, были когда-то времена, когда вся страна знала: на новогодние праздники обязательно покажут новую сказку Марка Захарова по сценарию Григория Горина. Иронически и философски переосмысливая с детства знакомые истории, этот блистательный дуэт дарил зрителям то "Обыкновенное чудо", то "Барона Мюнхгаузена", то "Дом, который построил Свифт", то "Формулу любви", то "Убить дракона"... Увы, прошли времена притч-иносказаний, притч-намеков, с восторгом читаемых тогдашней интеллигентной публикой. Марк Захаров давно ушел из кино.

И вот уже несколько лет, как навсегда ушел от нас Григорий Горин...

А их фильмы продолжают радовать новые поколения зрителей. Остроумием диалогов. Блистательной актерской игрой (чего стоит одна только роль Л.Броневого в "Формуле любви"!). Элегантной режиссурой, вышивающей блестящие узоры на занимательных сюжетах с философским двойным дном..."

Александр Федоров































Поделиться:




реклама партнёра


Вернуться к началу
 Профиль Отправить личное сообщение  
 
   Похожие торренты   Автор   Торрент   Размер 
В этой теме нет новых непрочитанных сообщений. Пир любви / Daawat-e-Ishq [драма, мелодрама, комедия, 2014] HDRip, Mvo+Sub

salma3

18 | 6

2.18 ГБ

В этой теме нет новых непрочитанных сообщений. Петербург. Только по любви (Комедия, мелодрама, 2016) WEB-DLRip | iTunes

marya111

198 | 0

2.05 ГБ

В этой теме нет новых непрочитанных сообщений. Страна любви / The Republic of Love [мелодрама, комедия, 2003] DVDRip, Mvo

salma3

30 | 4

1.37 ГБ

В этой теме нет новых непрочитанных сообщений. Бестселлер по любви (Николай Михайлов) [2016, Мелодрама, комедия, WEB-DLRip]

marya111

455 | 37

1.37 ГБ

В этой теме нет новых непрочитанных сообщений. Петербург. Только по любви [Комедия, мелодрама, 2016] WEB-DL 1080p [iTunes]

salma3

336 | 11

4.3 ГБ

В этой теме нет новых непрочитанных сообщений. Петербург. Только по любви [Комедия, мелодрама, 2016] WEB-DL 720p [iTunes]

salma3

313 | 7

3.43 ГБ

В этой теме нет новых непрочитанных сообщений. Корабль [S02x01-26 из 26] (Олег Асадулин, Марк Горобец) [фантастика, приключения, мелодрама, 2015] SATRip

Dracon

296 | 209

17.07 ГБ


Начать новую тему Ответить на тему  [ 1 сообщение ] 




Для Мосгорсуда, Роскомнадзора и рекламодателей:: mosgorsud-torrent[собачка]yandex.ru