Торрент файл
скачать торрент магнет ссылка Добавлен: 29 фев 2012, 20:56
Размер: 2.2 ГБ
Сидеров: 23
Личеров: 9
Автор

СообщениеДобавлено: 29 фев 2012, 20:56 

Не в сети
Супермодератор
Аватара пользователя
Дата регистрации:
11 апр 2010, 18:10
Спасибо: 5799 / 7
Сообщения: 56779
Офицеры [Ремастеринг]


Формат: HDRip-AVC, MKV, H.264, AC3

Режиссер: Владимир Роговой

Жанр: драма, мелодрама

Продолжительность: 01:35:26
Год выпуска: 1971

В ролях: Георгий Юматов, Василий Лановой, Алина Покровская, Александр Воеводин, Наталья Рычагова, Владимир Дружников, Андрей Громов, Юрий Сорокин, Шаджан Акмухамедов, Евгений Весник
Описание:
Судьбы двух друзей - Алексея Трофимова и Ивана Вараввы - прослеживаются на протяжении многих лет. В 20-е они вместе служили на пограничной заставе, бились с басмачами. Там они, будучи еще совсем молодыми, на всю жизнь запомнили наказ своего командира: «Есть такая профессия - родину защищать». Потом Испания, Великая Отечественная война и мирные дни. Старые друзья снова встречаются, уже став генералами.




Видео: 1280х534 (2.35:1), 24.000 fps, AVC (х264), High@L4.1, ~2 919 Kbps avg, 0.178 bit/pixel
Аудио: 48.0 kHz, AC-3, 6 channels (Front: L C R, Side: L R, LFE), ~384.00 kbps avg
Общее
Уникальный идентификатор: 235374969229764845221245685602730653129 (0xB11391F4AFF6ECDCAD460498A0A435C9)
Полное имя: D:\Video\ofitzery_[tfile.ru].mkv
Формат: Matroska
Версия формата: Version 2
Размер файла: 2,20 Гбайт
Продолжительность: 1 ч. 35 м.
Общий поток: 3293 Кбит/сек
Название фильма: Rip by PunisheR [nolimits-team.ru]
Дата кодирования: UTC 2011-04-25 19:26:28
Программа кодирования: mkvmerge v3.2.0 ('Beginnings') built on Feb 12 2010 16:46:17
Библиотека кодирования: libebml v0.7.9 + libmatroska v0.8.1

Видео
Идентификатор: 2
Формат: AVC
Формат/Информация: Advanced Video Codec
Профиль формата: High@L4.1
Параметр CABAC формата: Да
Параметр ReFrames формата: 3 кадра
Идентификатор кодека: V_MPEG4/ISO/AVC
Продолжительность: 1 ч. 35 м.
Вид битрейта: Переменный
Битрейт: 2919 Кбит/сек
Максимальный битрейт: 15,0 Мбит/сек
Ширина: 1280 пикс.
Высота: 534 пикс.
Соотношение сторон: 2,35:1
Соотношение сторон в оригинале: 2,40:1
Частота кадров: 24,000 кадр/сек
Цветовое пространство: YUV
Подвыборка цветности: 4:2:0
Битовая глубина: 8 бит
Тип развёртки: Прогрессивная
Бит/(Пиксели*Кадры): 0.178
Размер потока: 1,90 Гбайт (86%)
Заголовок: Ofitsery.1971.[nolimits-team.ru]
Библиотека кодирования: x264 core 114 r1913 5fd3dce
Настройки программы: cabac=1 / ref=1 / deblock=1:0:0 / analyse=0x3:0x3 / me=dia / subme=1 / psy=1 / psy_rd=0.00:0.00 / mixed_ref=0 / me_range=16 / chroma_me=1 / trellis=0 / 8x8dct=1 / cqm=0 / deadzone=21,11 / fast_pskip=1 / chroma_qp_offset=0 / threads=6 / sliced_threads=0 / slices=4 / nr=0 / decimate=1 / interlaced=0 / constrained_intra=0 / bframes=3 / b_pyramid=1 / b_adapt=1 / b_bias=0 / direct=1 / weightb=1 / open_gop=0 / weightp=1 / keyint=24 / keyint_min=1 / scenecut=40 / intra_refresh=0 / rc_lookahead=0 / rc=abr / mbtree=0 / bitrate=2919 / ratetol=1.0 / qcomp=0.60 / qpmin=0 / qpmax=69 / qpstep=4 / vbv_maxrate=15000 / vbv_bufsize=15000 / nal_hrd=vbr / ip_ratio=1.10 / pb_ratio=1.10 / aq=1:1.00
Язык: Russian

Аудио
Идентификатор: 1
Формат: AC-3
Формат/Информация: Audio Coding 3
Расширение режима: CM (complete main)
Идентификатор кодека: A_AC3
Продолжительность: 1 ч. 35 м.
Вид битрейта: Постоянный
Битрейт: 384 Кбит/сек
Каналы: 6 каналов
Расположение каналов: Front: L C R, Side: L R, LFE
Частота: 48,0 КГц
Битовая глубина: 16 бит
Метод сжатия: С потерями
Размер потока: 262 Мбайт (12%)
Язык: Russian








Поделиться:




реклама партнёра


Вернуться к началу
 Профиль Отправить личное сообщение  
 
   Похожие торренты   Автор   Торрент   Размер 
В этой теме нет новых непрочитанных сообщений. Дорога без конца (Владимир Толкачиков) [Драма, мелодрама, 2015] HDRip

Dracon

698 | 32

1.37 ГБ

В этой теме нет новых непрочитанных сообщений. Обманутый / The Beguiled [Драма, мелодрама, вестерн, военный, 1971] BDRip 1080p, Dub+Mvo+Av0+Sub

salma3

3 | 5

11.45 ГБ

В этой теме нет новых непрочитанных сообщений. Сыграй мне перед смертью / Play Misty for me [Триллер, драма, мелодрама, криминал, 1971] BDRemux 1080p, Dub+Sub

salma3

1 | 2

25.3 ГБ

В этой теме нет новых непрочитанных сообщений. Сыграй мне перед смертью / Play Misty for me [Триллер, драма, мелодрама, криминал, 1971] BDRip 720p, Dub+2Mvo+Sub

salma3

3 | 4

7.6 ГБ

В этой теме нет новых непрочитанных сообщений. Троянки / The Trojan Women [драма, 1971] DVDRip, Avo

salma3

15 | 4

1.46 ГБ

В этой теме нет новых непрочитанных сообщений. Котч / Старикан / Kotch [Драма, комедия, 1971] DVDRip, Dvo

salma3

14 | 3

1.48 ГБ

В этой теме нет новых непрочитанных сообщений. Сыщик / Gumshoe [драма, комедия, криминал, детектив, 1971] DVDRip, Mvo

salma3

4 | 5

1.47 ГБ


Начать новую тему Ответить на тему  [ 1 сообщение ] 




Для Мосгорсуда, Роскомнадзора и рекламодателей:: mosgorsud-torrent[собачка]yandex.ru
cron