Торрент файл
скачать торрент магнет ссылка Добавлен: 29 фев 2012, 20:19
Размер: 2.15 ГБ
Сидеров: 23
Личеров: 7
Автор

СообщениеДобавлено: 29 фев 2012, 20:19 

Не в сети
Супермодератор
Аватара пользователя
Дата регистрации:
11 апр 2010, 18:10
Спасибо: 5801 / 7
Сообщения: 56779
Собака на сене

Формат: DVDRip-AVC, MKV, H.264, AC3

Режиссер: Ян Фрид

Жанр: мюзикл, комедия

Продолжительность: 02:08:43 (01:04:56+01:03:47 - 2 серии)

Год выпуска: 1977

В ролях: Маргарита Терехова, Михаил Боярский, Армен Джигарханян, Елена Проклова, Зинаида Шарко, Виктор Ильичев, Игорь Дмитриев, Николай Караченцов, Гелена Ивлиева

Описание: Богатая и знатная сеньора Диана терзается сомнениями: ей нужно выбрать между достойными её руки женихами и личным секретарем — красавцем и ловеласом. А тот, в свою очередь, не может решить, кто ему больше по сердцу — его обворожительная хозяйка или её прелестная служанка…



Видео #1:720x536 (4:3), 25 fps, AVC (х264) High@L4.1, ~1928 Kbps avg, 0.200 bit/pixel
Видео #2:720x536 (4:3), 25 fps, AVC (х264) High@L4.1, ~1963 Kbps avg, 0.203 bit/pixel

Аудио: 48 kHz, AC3, 3/2 (L,C,R,l,r) + LFE ch, ~448.00 kbps


General
Unique ID: 206899532155886681063444096779350158302 (0x9BA766839EE9310287C7FA55124BABDE)
Complete name: D:\Раздачи\sobaka_na_sene_[tfile.ru]\sobaka_na_sene_01.mkv
Format: Matroska
Format version: Version 1
File size: 1.08 GiB
Duration: 1h 4mn
Overall bit rate: 2 379 Kbps
Encoded date: UTC 2010-12-20 12:46:30
Writing application: mkvmerge v2.4.2 ('Oh My God') built on Jan 18 2009 17:30:28
Writing library: libebml v0.7.7 + libmatroska v0.8.1

Video
ID: 1
Format: AVC
Format/Info: Advanced Video Codec
Format profile: High@L4.1
Format settings, CABAC: Yes
Format settings, ReFrames: 16 frames
Codec ID: V_MPEG4/ISO/AVC
Duration: 1h 4mn
Bit rate: 1 928 Kbps
Width: 720 pixels
Height: 536 pixels
Display aspect ratio: 4:3
Frame rate: 25.000 fps
Color space: YUV
Chroma subsampling: 4:2:0
Bit depth: 8 bits
Scan type: Progressive
Bits/(Pixel*Frame): 0.200
Stream size: 875 MiB (79%)
Writing library: x264 core 108 r1790 8eaf8a6
Encoding settings: cabac=1 / ref=16 / deblock=1:-1:-1 / analyse=0x3:0x133 / me=umh / subme=10 / psy=1 / psy_rd=1.00:0.10 / mixed_ref=1 / me_range=36 / chroma_me=1 / trellis=2 / 8x8dct=1 / cqm=0 / deadzone=21,11 / fast_pskip=0 / chroma_qp_offset=-3 / threads=3 / sliced_threads=0 / nr=0 / decimate=1 / interlaced=0 / constrained_intra=0 / bframes=8 / b_pyramid=2 / b_adapt=2 / b_bias=0 / direct=3 / weightb=1 / open_gop=0 / weightp=2 / keyint=250 / keyint_min=25 / scenecut=40 / intra_refresh=0 / rc_lookahead=50 / rc=2pass / mbtree=1 / bitrate=1928 / ratetol=1.0 / qcomp=0.60 / qpmin=10 / qpmax=51 / qpstep=4 / cplxblur=20.0 / qblur=0.5 / ip_ratio=1.40 / aq=1:1.00
Language: English
Default: Yes
Forced: No

Audio
ID: 2
Format: AC-3
Format/Info: Audio Coding 3
Mode extension: CM (complete main)
Codec ID: A_AC3
Duration: 1h 4mn
Bit rate mode: Constant
Bit rate: 448 Kbps
Channel(s): 6 channels
Channel positions: Front: L C R, Side: L R, LFE
Sampling rate: 48.0 KHz
Bit depth: 16 bits
Compression mode: Lossy
Delay relative to video: 291ms
Stream size: 208 MiB (19%)
Default: Yes
Forced: No


General
Unique ID: 243378683796923229007880908433494239669 (0xB719078CFC109680B1F1D188E5EDE9B5)
Complete name: D:\Раздачи\sobaka_na_sene_[tfile.ru]\sobaka_na_sene_02.mkv
Format: Matroska
Format version: Version 1
File size: 1.08 GiB
Duration: 1h 3mn
Overall bit rate: 2 414 Kbps
Encoded date: UTC 2010-12-24 13:17:10
Writing application: mkvmerge v2.4.2 ('Oh My God') built on Jan 18 2009 17:30:28
Writing library: libebml v0.7.7 + libmatroska v0.8.1

Video
ID: 1
Format: AVC
Format/Info: Advanced Video Codec
Format profile: High@L4.1
Format settings, CABAC: Yes
Format settings, ReFrames: 16 frames
Codec ID: V_MPEG4/ISO/AVC
Duration: 1h 3mn
Bit rate: 1 963 Kbps
Width: 720 pixels
Height: 536 pixels
Display aspect ratio: 4:3
Frame rate: 25.000 fps
Color space: YUV
Chroma subsampling: 4:2:0
Bit depth: 8 bits
Scan type: Progressive
Bits/(Pixel*Frame): 0.203
Stream size: 875 MiB (79%)
Writing library: x264 core 108 r1790 8eaf8a6
Encoding settings: cabac=1 / ref=16 / deblock=1:-1:-1 / analyse=0x3:0x133 / me=umh / subme=10 / psy=1 / psy_rd=1.00:0.10 / mixed_ref=1 / me_range=36 / chroma_me=1 / trellis=2 / 8x8dct=1 / cqm=0 / deadzone=21,11 / fast_pskip=0 / chroma_qp_offset=-3 / threads=3 / sliced_threads=0 / nr=0 / decimate=1 / interlaced=0 / constrained_intra=0 / bframes=8 / b_pyramid=2 / b_adapt=2 / b_bias=0 / direct=3 / weightb=1 / open_gop=0 / weightp=2 / keyint=250 / keyint_min=25 / scenecut=40 / intra_refresh=0 / rc_lookahead=50 / rc=2pass / mbtree=1 / bitrate=1963 / ratetol=1.0 / qcomp=0.60 / qpmin=10 / qpmax=51 / qpstep=4 / cplxblur=20.0 / qblur=0.5 / ip_ratio=1.40 / aq=1:1.00
Language: English
Default: Yes
Forced: No

Audio
ID: 2
Format: AC-3
Format/Info: Audio Coding 3
Mode extension: CM (complete main)
Codec ID: A_AC3
Duration: 1h 3mn
Bit rate mode: Constant
Bit rate: 448 Kbps
Channel(s): 6 channels
Channel positions: Front: L C R, Side: L R, LFE
Sampling rate: 48.0 KHz
Bit depth: 16 bits
Compression mode: Lossy
Delay relative to video: 226ms
Stream size: 204 MiB (19%)
Default: Yes
Forced: No


* В сцене, где Диана бъёт веером Теодоро, так что у него из носа идёт кровь не притворна. Терехова ударила Боярского (который сам попросил сделать сцену понатуральнее) с такой силой, что у него действительно пошла кровь.

* Натурные съёмки фильма были сделаны в Крыму.










Поделиться:




реклама партнёра


Вернуться к началу
 Профиль Отправить личное сообщение  
 
   Похожие торренты   Автор   Торрент   Размер 
В этой теме нет новых непрочитанных сообщений. Ленни - чудо собака! / Lenny the Wonder Dog [Комедия, приключения, семейный, 2004] DVDRip, Mvo

salma3

59 | 9

770.34 МБ

В этой теме нет новых непрочитанных сообщений. Я, папа и собака / I Heart Shakey [комедия, приключения, семейный, 2012] WEB-DLRip, Mvo

salma3

100 | 10

1.46 ГБ

В этой теме нет новых непрочитанных сообщений. Пляжный домик / Casotto [комедия, 1977] DVDRip, Avo

salma3

921 | 131

1.45 ГБ

В этой теме нет новых непрочитанных сообщений. Внеклассный мюзикл / Sunday School Musical [мюзикл, драма, 2008] DVDRip, Mvo

salma3

5 | 3

1.37 ГБ

В этой теме нет новых непрочитанных сообщений. Крутой наполовину / Semi-Tough [комедия, мелодрама, спорт, 1977] DVDRip, Dvo

salma3

36 | 9

1.46 ГБ

В этой теме нет новых непрочитанных сообщений. Величайший любовник в мире / The World's Greatest Lover [комедия, 1977] DVDRip, Mvo

salma3

9 | 8

1.46 ГБ

В этой теме нет новых непрочитанных сообщений. Коварство / Chacha Bhatija [боевик, драма, комедия, семейный, 1977] DVDRip. Avo

salma3

3 | 6

1.56 ГБ


Начать новую тему Ответить на тему  [ 1 сообщение ] 




Для Мосгорсуда, Роскомнадзора и рекламодателей:: mosgorsud-torrent[собачка]yandex.ru