[ 1 сообщение ] 
Автор Сообщение

СообщениеДобавлено: 17 апр 2019, 11:52 

Не в сети
Супермодератор
Аватара пользователя
Возраст: 29

Спасибо: 8030 / 2147
Сообщения: 90481
Дата регистрации: 15 фев 2012, 16:44
Торренты: 83182
Год выхода: 2018
Жанр: ужасы, боевик, триллер
Режиссер:Кристиан Альварт

В ролях:
Мориц Бляйбтрой, Ясна Фритци Бауэр, Ларс Айдингер, Фахри Огюн Ярдим, Энно Хессе, Кристиан Кухенбух, Урс Юккер, Барбара Пракопенка, Джой Мария Бэй, Ян Бюлов

О фильме:
Судмедэксперт Пауль Херцфельд обнаруживает в голове чудовищно изуродованного трупа записку, на которой — телефонный номер с указанием: позвони и узнаешь судьбу своей похищенной дочери. На острове Хельголанд, отрезанном от суши страшным ураганом, Пауля поджидает еще один мертвец, а внутри — дальнейшие указания. И это только начало цепочки смертей… Психопат-похититель не прочь поиграть с жертвами в кошки-мышки. Тот, кто разгадает головоломку из тел, имеет шансы остаться в живых.



Страна: Германия
Продолжительность: 02:11:37
Перевод:Профессиональный (полное дублирование)[iTunes]

Файл
Качество: WEB-DL 1080p
Видео: MPEG-4 AVC, 1920x802, 4535 Kbit/s, 24 fps
Аудио: 48 kHz, AC3, 5.1, 384 Kbps | iTunes | RUS


General
Unique ID : 300894831915639128951321330235406813036 (0xE25E3C97B362AD241BE9AE5F8480076C)
Complete name : D:Video111Abgeschnitten.2018.WEB-DL.1080p.seleZen.mkv
Format : Matroska
Format version : Version 4
File size : 4.52 GiB
Duration : 2 h 11 min
Overall bit rate : 4 921 kb/s
Movie name : Abgeschnitten 2018 from селезень
Encoded date : UTC 2019-04-16 22:19:57
Writing application : mkvmerge v32.0.0 ('Astral Progressions') 64-bit
Writing library : libebml v1.3.7 + libmatroska v1.5.0

Video
ID : 1
Format : AVC
Format/Info : Advanced Video Codec
Format profile : High@L4
Format settings : CABAC / 5 Ref Frames
Format settings, CABAC : Yes
Format settings, ReFrames : 5 frames
Codec ID : V_MPEG4/ISO/AVC
Duration : 2 h 11 min
Bit rate : 4 535 kb/s
Width : 1 920 pixels
Height : 802 pixels
Display aspect ratio : 2.40:1
Frame rate mode : Constant
Frame rate : 24.000 FPS
Color space : YUV
Chroma subsampling : 4:2:0
Bit depth : 8 bits
Scan type : Progressive
Bits/(Pixel*Frame) : 0.123
Stream size : 4.17 GiB (92%)
Language : English
Default : Yes
Forced : No
Color range : Limited
Color primaries : BT.709
Transfer characteristics : BT.709
Matrix coefficients : BT.709

Audio
ID : 2
Format : AC-3
Format/Info : Audio Coding 3
Commercial name : Dolby Digital
Codec ID : A_AC3
Duration : 2 h 11 min
Bit rate mode : Constant
Bit rate : 384 kb/s
Channel(s) : 6 channels
Channel layout : L R C LFE Ls Rs
Sampling rate : 48.0 kHz
Frame rate : 31.250 FPS (1536 SPF)
Bit depth : 16 bits
Compression mode : Lossy
Stream size : 362 MiB (8%)
Title : iTunes
Language : Russian
Service kind : Complete Main
Default : Yes
Forced : Yes

Menu
00:00:00.000 : en:Глава 1
00:09:58.416 : en:Глава 2
00:18:37.541 : en:Глава 3
00:26:44.331 : en:Глава 4
00:35:00.371 : en:Глава 5
00:43:27.121 : en:Глава 6
00:51:33.037 : en:Глава 7
01:00:29.828 : en:Глава 8
01:09:08.577 : en:Глава 9
01:17:34.493 : en:Глава 10
01:26:22.243 : en:Глава 11
01:34:38.200 : en:Глава 12
01:42:55.991 : en:Глава 13
01:51:16.741 : en:Глава 14
02:00:15.032 : en:Глава 15


Релиз от:


У вас нет необходимых прав для просмотра вложений в этом сообщении.

_________________
Проголосуй за трекер Открытый торрент трекер - RUS-MEDIA.ORG

Проголосуй Открытый торрент трекер - RUS-MEDIA.ORG


Вернуться к началу
 Профиль Отправить личное сообщение  
 
 [ 1 сообщение ] 



Перейти:  

Для Мосгорсуда, Роскомнадзора и рекламодателей:: mosgorsud-torrent[собачка]yandex.ru