Торрент файл
скачать торрент магнет ссылка Добавлен: 10 дек 2011, 00:04
Размер: 7.77 ГБ
Сидеров: 4
Личеров: 8
Автор

СообщениеДобавлено: 10 дек 2011, 00:04 

Не в сети
Супермодератор
Аватара пользователя
Дата регистрации:
11 апр 2010, 18:10
Спасибо: 5802 / 7
Сообщения: 56779
Жила-была одна баба



Перевод: Не требуется
Субтитры: Отсутствуют
Формат: DVD9, DVD Video, MPEG2, AC3
Страна: Россия
Режиссер: Андрей Смирнов
Жанр: драма, история
Продолжительность: 02:29:26
Год выпуска: 2011

В ролях: Дарья Екамасова, Нина Русланова, Всеволод Шиловский, Евдокия Германова, Юрий Шевчук, Алексей Серебряков, Алексей Алексеев, Михаил Евланов, Егор Клейменов, Мария Клюквина

Описание: История частной жизни одной женщины и четверых ее мужчин. Главная героиня — неграмотная крестьянка, и действие фильма начинается с ее свадьбы в 1909 году, когда девушку из нищей семьи взяли в богатую, а кончается в 1921 году Антоновским восстанием...

Рейтинг КиноПоиск.RU:4.909
Рейтинг на IMDB: 7.9/10

Видео: 720x576 (PAL 16:9 ), MPEG 2 Video, 25,000 fps, ~9500 kbps avg
Аудио: Русский: 48 kHz, AC3, 6 ch, ~448 kbps avg

семпл


Формат: MPEG-PS
Размер файла: 1024 Мбайт
Продолжительность: 26 м.
Режим общего битрейта: Переменный
Общий поток: 5356 Кбит/сек

Видео
Идентификатор: 224 (0xE0)
Формат: MPEG Video
Версия формата: Version 2
Профиль формата: Main@Main
Параметр BVOP формата: Да
Параметр матрицы формата: По умолчанию
Параметр GOP формата: M=3, N=12
Продолжительность: 26 м.
Вид битрейта: Переменный
Битрейт: 4802 Кбит/сек
Максимальный битрейт: 9500 Кбит/сек
Ширина: 720 пикселей
Высота: 576 пикселей
Соотношение сторон: 16:9
Частота кадров: 25,000 кадров/сек
Стандарт вещания: PAL
Цветовое пространство: YUV
Субдискретизация насыщенности: 4:2:0
Битовая глубина: 8 бит
Тип развёртки: Прогрессивная
Метод сжатия: С потерями
Бит/(Пиксели*Кадры): 0.463
Размер потока: 918 Мбайт (90%)

Аудио
Идентификатор: 189 (0xBD)-128 (0x80)
Формат: AC-3
Формат/Информация: Audio Coding 3
Расширение режима: CM (complete main)
Режим смешивания: DVD-Video
Продолжительность: 26 м.
Вид битрейта: Постоянный
Битрейт: 448 Кбит/сек
Каналы: 6 каналов
Расположение каналов: Front: L C R, Side: L R, LFE
Частота: 48,0 КГц
Битовая глубина: 16 бит
Метод сжатия: С потерями
Размер потока: 85,6 Мбайт (8%)

Меню

    Meню статичное, озвученное на русском языке, с навигацией по эпизодам
    Создатели и исполнители
    Фотогалерея
    Смотрите на DVD
    Фильм режиссера Ирины Бессарабовой "Под говор пьяных мужичков"























Поделиться:




реклама партнёра


Вернуться к началу
 Профиль Отправить личное сообщение  
 
   Похожие торренты   Автор   Торрент   Размер 
В этой теме нет новых непрочитанных сообщений. Два дня, одна ночь / Deux jours, une nuit (Жан-Пьер Дарденн, Люк Дарденн) [2014, Драма, DVD9 | лицензия] mvo

Nickolas3435

77 | 3

4.94 ГБ

В этой теме нет новых непрочитанных сообщений. Убить священника / To Kill a Priest [триллер, драма, история, 1988] DVD9, Mvo

salma3

6 | 3

5.5 ГБ

В этой теме нет новых непрочитанных сообщений. Андрей Смирнов - Adrenaline [2012, Heavy Metal,Power Metal, MP3]

PriZraK

0 | 1

108.76 МБ

В этой теме нет новых непрочитанных сообщений. Дубровский [Драма, 2014] DVD9 [Лицензия]

Dracon

15 | 7

7.46 ГБ

В этой теме нет новых непрочитанных сообщений. Бархатная золотая жила / Velvet Goldmine [музыкальная драма, 1998] BDRip 1080p, Avo

salma3

43 | 3

12.19 ГБ

В этой теме нет новых непрочитанных сообщений. Затухающий огонек / Le feu follet [драма, 1963] DVD9, Mvo+Sub

salma3

8 | 3

5.81 ГБ

В этой теме нет новых непрочитанных сообщений. Муха / The Fly [ужасы, фантастика, драма, 1986] DVD9, Mvo+Sub

salma3

4 | 3

4.87 ГБ


Начать новую тему Ответить на тему  [ 1 сообщение ] 




Для Мосгорсуда, Роскомнадзора и рекламодателей:: mosgorsud-torrent[собачка]yandex.ru