Торрент файл
скачать торрент магнет ссылка Добавлен: 10 дек 2011, 00:03
Размер: 7.27 ГБ
Сидеров: 5
Личеров: 8
Автор

СообщениеДобавлено: 10 дек 2011, 00:03 

Не в сети
Супермодератор
Аватара пользователя
Дата регистрации:
11 апр 2010, 18:10
Спасибо: 5798 / 7
Сообщения: 56779
Собачье сердце [Ремастеринг]


Перевод: Не требуется
Субтитры: отсутствуют
Формат: DVD9, DVD Video, MPEG2, AC3
Страна: СССР
Режиссер: Владимир Бортко
Жанр: фантастика, драма, комедия
Продолжительность: 02:15:58
Год выпуска: 1988

В ролях: Владимир Толоконников, Евгений Евстигнеев, Борис Плотников, Роман Карцев, Нина Русланова, Ольга Мелихова, Алексей Миронов, Анжелика Неволина, Наталья Фоменко, Иван Ганжа

Описание: Профессор Преображенский ставит смелые опыты, пытаясь превратить собаку Шарика в равного себе во всем человека. В результате получается некто Шариков. К сожалению, опыт доказывает, что собаке лучше оставаться собакой.

Рейтинг на IMDB: 8.9/10
Рейтинг на Кинопоиск.RU: 8.357

Видео: 720x576 (4:3), 25 fps, MPEG2 Video, (Main@Main) ~7000 kbps avg
Аудио#1:Русский 48.0 kHz, AC3, 6 ch ~384 Kbps avg
Аудио#2:Русский 48.0 kHz, AC3, 1 ch ~224 Kbps avg

Доп. информация: Лицензионное издание "Крупный план", полная реставрация изображения и звука. В отличии от "Твистера" изображение не ч/б, а сепия, как в оригинале.

1988 — Конкурс профессиональных премий киностудии «Ленфильм» и Ленинградского отделения СК (Премия им. А. Москвина за лучшую операторскую работу — Юрий Шайгарданов)
1989 — Международный кинофестиваль в Варшаве (Приз «Золотой экран» — Владимир Бортко)
1989 — XII телефестиваль в Душанбе (Гран-при — Владимир Бортко)
1989 — XLI МТФ в Перудже («Приз Италии»)
1989 — 13 Международный кинофестиваль в Болгарии («Приз за режиссуру» — Владимир Бортко)
1990 — Государственная премия РСФСР имени братьев Васильевых (Владимир Бортко и Евгений Евстигнеев)
Общее
Полное имя: sobachye_serdtse_[tfile.ru]\VTS_02_1.VOB
Формат: MPEG-PS
Размер файла: 1024 Мбайт
Продолжительность: 18 м.
Общий поток: 7740 Кбит/сек

Видео
Идентификатор: 224 (0xE0)
Формат: MPEG Video
Версия формата: Version 2
Профиль формата: Main@Main
Параметр BVOP формата: Да
Параметр матрицы формата: По умолчанию
Параметры GOP формата: M=3, N=15
Продолжительность: 18 м.
Вид битрейта: Постоянный
Битрейт: 7000 Кбит/сек
Ширина: 720 пикс.
Высота: 576 пикс.
Соотношение сторон: 4:3
Частота кадров: 25,000 кадр/сек
Стандарт вещания: PAL
Цветовое пространство: YUV
Подвыборка цветности: 4:2:0
Битовая глубина: 8 бит
Тип развёртки: Чересстрочная
Порядок развёртки: Верхнее поле первое
Метод сжатия: С потерями
Бит/(Пиксели*Кадры): 0.675
Размер потока: 923 Мбайт (90%)

Аудио #1
Идентификатор: 128 (0x80)
Формат: AC-3
Формат/Информация: Audio Coding 3
Расширение режима: CM (complete main)
Продолжительность: 18 м.
Вид битрейта: Постоянный
Битрейт: 384 Кбит/сек
Канал(ы): 6 канала(ов)
Расположение каналов: Front: L C R, Side: L R, LFE
Частота: 48,0 КГц
Битовая глубина: 16 бит
Метод сжатия: С потерями
Задержка видео: 582 мс.
Размер потока: 50,8 Мбайт (5%)

Аудио #2
Идентификатор: 129 (0x81)
Формат: AC-3
Формат/Информация: Audio Coding 3
Расширение режима: CM (complete main)
Продолжительность: 18 м.
Вид битрейта: Постоянный
Битрейт: 224 Кбит/сек
Канал(ы): 1 канал
Расположение каналов: Front: C
Частота: 48,0 КГц
Битовая глубина: 16 бит
Метод сжатия: С потерями
Задержка видео: 553 мс.
Размер потока: 29,6 Мбайт (3%)

Меню























Поделиться:




реклама партнёра


Вернуться к началу
 Профиль Отправить личное сообщение  
 
   Похожие торренты   Автор   Торрент   Размер 
В этой теме нет новых непрочитанных сообщений. Тараканы! - Собачье Сердце (Maxi Single) [2011, Punk Rock, MP3]

PriZraK

0 | 1

23.86 МБ

В этой теме нет новых непрочитанных сообщений. Убить священника / To Kill a Priest [триллер, драма, история, 1988] DVD9, Mvo

salma3

6 | 3

5.5 ГБ

В этой теме нет новых непрочитанных сообщений. Бойфренд из будущего / About Time [Фантастика, драма, комедия, 2013] DVD9, Dub+Sub [Лицензия]

salma3

3 | 2

7.36 ГБ

В этой теме нет новых непрочитанных сообщений. Муха / The Fly [ужасы, фантастика, драма, 1986] DVD9, Mvo+Sub

salma3

4 | 3

4.87 ГБ

В этой теме нет новых непрочитанных сообщений. Радиоволна / Frequency [триллер, фантастика, драма, криминал, 2000] DVD9, Mvo+Sub

salma3

11 | 2

5.06 ГБ

В этой теме нет новых непрочитанных сообщений. Трудно быть Богом [фантастика, драма, 2013] DVD9 [лицензия]

Dracon

107 | 6

6.84 ГБ

В этой теме нет новых непрочитанных сообщений. Агент Коди Бэнкс / Agent Cody Banks [Комедия, боевик, приключения, фантастика, 2003] DVD9, Dub+Dvo+Sub

salma3

5 | 6

7.86 ГБ


Начать новую тему Ответить на тему  [ 1 сообщение ] 




Для Мосгорсуда, Роскомнадзора и рекламодателей:: mosgorsud-torrent[собачка]yandex.ru