Торрент файл
скачать торрент магнет ссылка Добавлен: 09 дек 2011, 23:59
Размер: 4.19 ГБ
Сидеров: 0
Личеров: 9
Автор

СообщениеДобавлено: 09 дек 2011, 23:59 

Не в сети
Супермодератор
Аватара пользователя
Дата регистрации:
11 апр 2010, 18:10
Спасибо: 5801 / 7
Сообщения: 56779
Капитан Фракасс


Перевод: Не требуется
Субтитры: отсутствуют
Формат: DVD5, DVD Video, MPEG2, AC3
Страна: CCCP
Режиссер: Владимир Савельев
Жанр: Драма
Продолжительность: 02:15:11
Год выпуска: 1984

В ролях: Петр Горин, Анна Исайкина, Юри Ярвет, Ивар Калныньш, Елена Кондулайнен, Олег Меньшиков, Валентин Никулин, Всеволод Шиловский, Светлана Тома, Леонид Ярмольник

Описание: Франция, 17-й век. Обедневший барон де Сигоньяк разрешает труппе странствующих актеров провести ночь в своем замке. В итоге, уставший от сельской жизни молодой барон решает отправиться вместе с ними в Париж. По пути один из актеров умирает, и де Сигонак занимает его место — начинает играть роль капитана Фракасса. Во время представления в столице молодая актриса Изабель удостаивается внимания богатого герцога. Когда она отказывает его притязаниям. Герцог угрожает похитить ее, однако сердце девушки уже принадлежит молодому барону…

Рейтинг на КиноПоиск:7.432
Рейтинг на IMDB:6.2/10

Видео: 720x576, ( PAL4:3), MPEG2 Video, 25,000 кадр/сек, ~ 8000 Кбит/сек
Аудио: Русский, 48,0 КГц, AC3, 2 канала(ов), ~192 Кбит/сек

Доп. информация: Качество картинки на 3+. Это единственный диск, продаваемый на Озоне.

Полное имя: I:\Фильмы DVD\Наши\Капитан Фракасс DVD-5\VIDEO_TS\VTS_07_1.VOB
Формат: MPEG-PS
Размер файла: 1024 Мбайт
Продолжительность: 32 м.
Общий поток: 4344 Кбит/сек
Видео
Идентификатор: 224 (0xE0)
Формат: MPEG Video
Версия формата: Version 2
Профиль формата: Main@Main
Параметр BVOP формата: Да
Параметр матрицы формата: По умолчанию
Параметры GOP формата: M=3, N=12
Продолжительность: 32 м.
Вид битрейта: Переменный
Битрейт: 4066 Кбит/сек
Номинальный битрейт: 8000 Кбит/сек
Ширина: 720 пикс.
Высота: 576 пикс.
Соотношение сторон: 4:3
Частота кадров: 25,000 кадр/сек
Стандарт вещания: PAL
Цветовое пространство: YUV
Подвыборка цветности: 4:2:0
Битовая глубина: 8 бит
Тип развёртки: Прогрессивная
Порядок развёртки: Нижнее поле первое
Метод сжатия: С потерями
Бит/(Пиксели*Кадры): 0.392
Размер потока: 958 Мбайт (94%)
Аудио
Идентификатор: 128 (0x80)
Формат: AC-3
Формат/Информация: Audio Coding 3
Расширение режима: CM (complete main)
Продолжительность: 32 м.
Вид битрейта: Постоянный
Битрейт: 192 Кбит/сек
Канал(ы): 2 канала(ов)
Расположение каналов: Front: L R
Частота: 48,0 КГц
Битовая глубина: 16 бит
Метод сжатия: С потерями
Размер потока: 45,2 Мбайт (4%)
Меню





























Поделиться:




реклама партнёра


Вернуться к началу
 Профиль Отправить личное сообщение  
 
   Похожие торренты   Автор   Торрент   Размер 
В этой теме нет новых непрочитанных сообщений. Капитан Сокол / Капитан Фалкао / Capitão Falcão (Джоао Лейтао / João Leitão) [2015г., Португалия, комедия, BDRip] avo

Alfredovich

24 | 7

1.46 ГБ

В этой теме нет новых непрочитанных сообщений. Ну погоди! [01-25 из 25] (Вячеслав Котёночкин, Юрий Бутырин, Владимир Тарасов...) [1969-2006, мультфильм, комедия, семейный, приключения, DVD5]

Nickolas3435

696 | 58

4.36 ГБ

В этой теме нет новых непрочитанных сообщений. Класс 1984 / Class of 1984 [триллер, драма, криминал, 1982] DVDRip, Avo

salma3

78 | 8

1.37 ГБ

В этой теме нет новых непрочитанных сообщений. Класс 1984 / Class of 1984 [боевик, триллер, драма, криминал, 1982] BDRip 1080p, Avo

salma3

101 | 32

7.76 ГБ

В этой теме нет новых непрочитанных сообщений. Класс 1984 / Class of 1984 [боевик, триллер, драма, криминал, 1982] BDRip 720p, Avo

salma3

13 | 16

4.67 ГБ

В этой теме нет новых непрочитанных сообщений. Класс 1984 / Class of 1984 [боевик, триллер, драма, криминал, 1982] BDRemux 1080p, Avo+Sub

salma3

10 | 2

28.28 ГБ

В этой теме нет новых непрочитанных сообщений. Роман с кокаином [драма, 2013] DVD5

Dracon

11 | 5

4.37 ГБ


Начать новую тему Ответить на тему  [ 1 сообщение ] 




Для Мосгорсуда, Роскомнадзора и рекламодателей:: mosgorsud-torrent[собачка]yandex.ru