Торрент файл
скачать торрент магнет ссылка Добавлен: 09 дек 2011, 23:58
Размер: 4.38 ГБ
Сидеров: 6
Личеров: 8
Автор

СообщениеДобавлено: 09 дек 2011, 23:58 

Не в сети
Супермодератор
Аватара пользователя
Дата регистрации:
11 апр 2010, 18:10
Спасибо: 5798 / 7
Сообщения: 56779
Волшебная лампа Аладдина


Перевод: Не требуется
Субтитры: Русские, английские (всего 11)
Формат: DVD5, DVD Video, MPEG2, AC3
Страна: СССР
Режиссер: Борис Рыцарев
Жанр: Фэнтези, мелодрама, приключения
Продолжительность: 01:18:43
Год выпуска: 1966

В ролях: Борис Быстров, Додо Чоговадзе, Андрей Файт, Отар Коберидзе, Екатерина Верулашвили, Георгий Милляр, Гусейн Садыхов, Валентин Брылеев, Юрий Чекулаев, Отар Биланишвили

Описание: Злой колдун-магрибинец взывает к звездам, чтобы те поведали ему имя человека, что найдет волшебную лампу, способную творить чудеса. Звезды ответили: «Это Аладдин». В Багдаде живет дочь султана, красавица Будур. Всякий, кто посмеет взглянуть на нее, будет казнен. Но своевольная и капризная принцесса заставляет Аладдина взглянуть на нее. Юноша как увидел принцессу, так сразу в нее и влюбился. А волшебная лампа со всемогущим джином, готовым выполнить любой приказ повелителя, помогла Аладдину сохранить свою любовь и справиться с Магрибинцем.

Рейтинг на КиноПоиск:7.486
Рейтинг на IMDB:6.5/10

Видео: 720x576, ( PAL4:3), MPEG2 Video, 25,000 кадр/сек, ~ 7000 Кбит/сек
Аудио: Русский, 48,0 КГц, AC3, 6 канала(ов), ~448 Кбит/сек

Доп. информация: КиноПоиск из жанра Сказка сделал то, что указано выше.

Полное имя: C:\Users\Петр\Documents\Downloads_p2p\Волшебная лампа Аладдина\VIDEO_TS\VTS_03_1.VOB
Формат: MPEG-PS
Размер файла: 1024 Мбайт
Продолжительность: 18 м.
Общий поток: 7624 Кбит/сек
Видео
Идентификатор: 224 (0xE0)
Формат: MPEG Video
Версия формата: Version 2
Профиль формата: Main@Main
Параметр BVOP формата: Да
Параметр матрицы формата: По умолчанию
Параметры GOP формата: M=3, N=12
Продолжительность: 18 м.
Вид битрейта: Постоянный
Битрейт: 7000 Кбит/сек
Ширина: 720 пикс.
Высота: 576 пикс.
Соотношение сторон: 4:3
Частота кадров: 25,000 кадр/сек
Стандарт вещания: PAL
Цветовое пространство: YUV
Подвыборка цветности: 4:2:0
Битовая глубина: 8 бит
Тип развёртки: Чересстрочная
Порядок развёртки: Верхнее поле первое
Метод сжатия: С потерями
Бит/(Пиксели*Кадры): 0.675
Размер потока: 943 Мбайт (92%)
Аудио
Идентификатор: 128 (0x80)
Формат: AC-3
Формат/Информация: Audio Coding 3
Расширение режима: CM (complete main)
Продолжительность: 18 м.
Вид битрейта: Постоянный
Битрейт: 448 Кбит/сек
Канал(ы): 6 канала(ов)
Расположение каналов: Front: L C R, Side: L R, LFE
Частота: 48,0 КГц
Битовая глубина: 16 бит
Метод сжатия: С потерями
Задержка видео: -80 мс.
Размер потока: 60,2 Мбайт (6%)
Текст #1
Идентификатор: 33 (0x21)
Формат: RLE
Формат/Информация: Run-length encoding
Продолжительность: 18 м.
Задержка видео: 640 мс.
Текст #2
Идентификатор: 34 (0x22)
Формат: RLE
Формат/Информация: Run-length encoding
Продолжительность: 18 м.
Задержка видео: 640 мс.
Текст #3
Идентификатор: 35 (0x23)
Формат: RLE
Формат/Информация: Run-length encoding
Продолжительность: 18 м.
Задержка видео: 640 мс.
Текст #4
Идентификатор: 36 (0x24)
Формат: RLE
Формат/Информация: Run-length encoding
Продолжительность: 18 м.
Задержка видео: 640 мс.
Текст #5
Идентификатор: 37 (0x25)
Формат: RLE
Формат/Информация: Run-length encoding
Продолжительность: 18 м.
Задержка видео: 640 мс.
Текст #6
Идентификатор: 38 (0x26)
Формат: RLE
Формат/Информация: Run-length encoding
Продолжительность: 18 м.
Задержка видео: 640 мс.
Текст #7
Идентификатор: 39 (0x27)
Формат: RLE
Формат/Информация: Run-length encoding
Продолжительность: 18 м.
Задержка видео: 640 мс.
Текст #8
Идентификатор: 40 (0x28)
Формат: RLE
Формат/Информация: Run-length encoding
Продолжительность: 18 м.
Задержка видео: 640 мс.
Текст #9
Идентификатор: 41 (0x29)
Формат: RLE
Формат/Информация: Run-length encoding
Продолжительность: 18 м.
Задержка видео: 640 мс.
Текст #10
Идентификатор: 42 (0x2A)
Формат: RLE
Формат/Информация: Run-length encoding
Продолжительность: 18 м.
Задержка видео: 640 мс.
Текст #11
Идентификатор: 32 (0x20)
Формат: RLE
Формат/Информация: Run-length encoding
Меню































Поделиться:




реклама партнёра


Вернуться к началу
 Профиль Отправить личное сообщение  
 
   Похожие торренты   Автор   Торрент   Размер 
В этой теме нет новых непрочитанных сообщений. Волшебная лампа / The Outing [ужасы, 1987] BDRip, Avo

salma3

44 | 12

1.46 ГБ

В этой теме нет новых непрочитанных сообщений. Волшебная лампа / The Outing [ужасы, 1987] DVDRip, Avo

salma3

45 | 6

1.37 ГБ

В этой теме нет новых непрочитанных сообщений. Малефисента / Maleficent [фэнтези, мелодрама, приключения, семейный, 2014] DVD5, Dub+Sub [лицензия]

Dracon

126 | 18

4.37 ГБ

В этой теме нет новых непрочитанных сообщений. Аладдин и смертельная лампа / Aladdin and the Death Lamp [Фэнтези, приключения, ужасы, 2012] DVDRip, Avo+Sub

salma3

461 | 84

1.34 ГБ

В этой теме нет новых непрочитанных сообщений. Орудия смерти: Город костей / The Mortal Instruments: City of Bones [фэнтези, приключения, драма, мелодрама, детектив, боевик, 2013] DVD5, Dub

salma3

19 | 2

4.37 ГБ

В этой теме нет новых непрочитанных сообщений. Волшебная страна (Цзяньрон Ву, Леон Динг) [мультфильм, фэнтези, приключения, 2014] WEBRip, dub [Чистый звук]

Dracon

10 | 4

703.93 МБ

В этой теме нет новых непрочитанных сообщений. Вий [фэнтези, триллер, приключения, 2013] DVD5 [лицензия]

Dracon

33 | 5

4.37 ГБ


Начать новую тему Ответить на тему  [ 1 сообщение ] 




Для Мосгорсуда, Роскомнадзора и рекламодателей:: mosgorsud-torrent[собачка]yandex.ru