COVID-19 - Последняя информация о коронавирусе на сайте Минздрава




Торрент файл
скачать торрент магнет ссылка Добавлен: 09 дек 2011, 23:58
Размер: 3.87 ГБ
Сидеров: 12
Личеров: 14
Автор

СообщениеДобавлено: 09 дек 2011, 23:58 

Не в сети
Супермодератор
Аватара пользователя
Дата регистрации:
11 апр 2010, 18:10
Спасибо: 6059 / 7
Сообщения: 56660
Здравия желаю! или Бешеный дембель



Перевод: Не требуется
Субтитры: отсутствуют
Формат: DVD5, DVD Video, MPEG2, AC3
Страна: СССР
Режиссер: Юрий Волкогон
Жанр: Комедия, военный
Продолжительность: 01:15:51
Год выпуска: 1990

В ролях: Вячеслав Кириличев, Виктор Ильичев, Михаил Кононов, Антон Андросов, Николай Гейко, Олег Комаров, Юрий Катин-Ярцев, Виктор Соловьев, Александр Симонов, Виталий Царегородцев

Описание: Эксцентрическая комедия о молодом солдате Мите Агафонове, который, предельно точно исполняя все требования воинского устава, совершенно измучил свое начальство. Генералы подают в отставку, «деды» молят о пощаде…

Рейтинг на КиноПоиск:5.827

Видео: 720x576, ( PAL4:3), MPEG2 Video, 25,000 кадр/сек, ~ 8500 Кбит/сек
Аудио: Русский, 48,0 КГц, AC3, 2 канала(ов), ~192 Кбит/сек


Полное имя: Н:\ZDRAVIE_ZHELAU\VIDEO_TS\VTS_01_2.VOB
Формат: MPEG-PS
Размер файла: 1024 Мбайт
Продолжительность: 20 м.
Общий поток: 7064 Кбит/сек
Видео
Идентификатор: 224 (0xE0)
Формат: MPEG Video
Версия формата: Version 2
Профиль формата: Main@Main
Параметр BVOP формата: Да
Параметр матрицы формата: По умолчанию
Параметры GOP формата: M=3, N=15
Продолжительность: 20 м.
Вид битрейта: Переменный
Битрейт: 6731 Кбит/сек
Номинальный битрейт: 8500 Кбит/сек
Ширина: 720 пикс.
Высота: 576 пикс.
Соотношение сторон: 4:3
Частота кадров: 25,000 кадр/сек
Стандарт вещания: PAL
Цветовое пространство: YUV
Подвыборка цветности: 4:2:0
Битовая глубина: 8 бит
Тип развёртки: Чересстрочная
Порядок развёртки: Нижнее поле первое
Метод сжатия: С потерями
Бит/(Пиксели*Кадры): 0.649
Размер потока: 976 Мбайт (95%)
Аудио
Идентификатор: 128 (0x80)
Формат: AC-3
Формат/Информация: Audio Coding 3
Расширение режима: CM (complete main)
Продолжительность: 20 м.
Вид битрейта: Постоянный
Битрейт: 192 Кбит/сек
Канал(ы): 2 канала(ов)
Расположение каналов: Front: L R
Частота: 48,0 КГц
Битовая глубина: 16 бит
Метод сжатия: С потерями
Задержка видео: -152 мс.
Размер потока: 27,8 Мбайт (3%)
Меню

























Поделиться:



Скачать книги и аудио книги через торрент


Вернуться к началу
 Профиль Отправить личное сообщение  
 
   Похожие торренты   Автор   Торрент   Размер 
В этой теме нет новых непрочитанных сообщений. Квартирка Джо / Joe's Apartment [комедия, 1996] DVD5, Mvo [Custom]

K15

0 | 0

3.84 ГБ

В этой теме нет новых непрочитанных сообщений. Кровавый Серфинг / Krocodylus [Ужасы, триллер, комедия, 2000] DVD5, Mvo

salma3

0 | 0

3.66 ГБ

В этой теме нет новых непрочитанных сообщений. Шазам! / Shazam! [Фэнтези, боевик, комедия, приключения, 2019] DVD5, Dub [Custom]

K15

2 | 1

4.36 ГБ

В этой теме нет новых непрочитанных сообщений. Нападение красоток-убийц / Assault of the Killer Bimbos [комедия, криминал, 1988] DVD5, Avo

salma3

0 | 0

3.27 ГБ

В этой теме нет новых непрочитанных сообщений. Шарло в Испании / Les charlots font l'Espagne [Эксцентрическая комедия, 1972] DVD5, Mvo

K15

0 | 0

4.08 ГБ

В этой теме нет новых непрочитанных сообщений. 8 подруг Оушена / Ocean's Eight [боевик, триллер, комедия, криминал, 2018] DVD5, Dub [Лицензия]

K15

0 | 0

4.38 ГБ

В этой теме нет новых непрочитанных сообщений. Красавица Мемфиса / Memphis Belle [Боевик, драма, военный, 1990] BDRip-AVC, Dub

salma3

1 | 1

1.45 ГБ


Начать новую тему Ответить на тему  [ 1 сообщение ] 




Для Мосгорсуда, Роскомнадзора и рекламодателей:: rstracker[собака]yandex.ru
cron