Торрент файл
скачать торрент магнет ссылка Добавлен: 09 дек 2011, 23:58
Размер: 3.87 ГБ
Сидеров: 12
Личеров: 14
Автор

СообщениеДобавлено: 09 дек 2011, 23:58 

Не в сети
Супермодератор
Аватара пользователя
Дата регистрации:
11 апр 2010, 18:10
Спасибо: 5830 / 7
Сообщения: 56778
Здравия желаю! или Бешеный дембель



Перевод: Не требуется
Субтитры: отсутствуют
Формат: DVD5, DVD Video, MPEG2, AC3
Страна: СССР
Режиссер: Юрий Волкогон
Жанр: Комедия, военный
Продолжительность: 01:15:51
Год выпуска: 1990

В ролях: Вячеслав Кириличев, Виктор Ильичев, Михаил Кононов, Антон Андросов, Николай Гейко, Олег Комаров, Юрий Катин-Ярцев, Виктор Соловьев, Александр Симонов, Виталий Царегородцев

Описание: Эксцентрическая комедия о молодом солдате Мите Агафонове, который, предельно точно исполняя все требования воинского устава, совершенно измучил свое начальство. Генералы подают в отставку, «деды» молят о пощаде…

Рейтинг на КиноПоиск:5.827

Видео: 720x576, ( PAL4:3), MPEG2 Video, 25,000 кадр/сек, ~ 8500 Кбит/сек
Аудио: Русский, 48,0 КГц, AC3, 2 канала(ов), ~192 Кбит/сек


Полное имя: Н:\ZDRAVIE_ZHELAU\VIDEO_TS\VTS_01_2.VOB
Формат: MPEG-PS
Размер файла: 1024 Мбайт
Продолжительность: 20 м.
Общий поток: 7064 Кбит/сек
Видео
Идентификатор: 224 (0xE0)
Формат: MPEG Video
Версия формата: Version 2
Профиль формата: Main@Main
Параметр BVOP формата: Да
Параметр матрицы формата: По умолчанию
Параметры GOP формата: M=3, N=15
Продолжительность: 20 м.
Вид битрейта: Переменный
Битрейт: 6731 Кбит/сек
Номинальный битрейт: 8500 Кбит/сек
Ширина: 720 пикс.
Высота: 576 пикс.
Соотношение сторон: 4:3
Частота кадров: 25,000 кадр/сек
Стандарт вещания: PAL
Цветовое пространство: YUV
Подвыборка цветности: 4:2:0
Битовая глубина: 8 бит
Тип развёртки: Чересстрочная
Порядок развёртки: Нижнее поле первое
Метод сжатия: С потерями
Бит/(Пиксели*Кадры): 0.649
Размер потока: 976 Мбайт (95%)
Аудио
Идентификатор: 128 (0x80)
Формат: AC-3
Формат/Информация: Audio Coding 3
Расширение режима: CM (complete main)
Продолжительность: 20 м.
Вид битрейта: Постоянный
Битрейт: 192 Кбит/сек
Канал(ы): 2 канала(ов)
Расположение каналов: Front: L R
Частота: 48,0 КГц
Битовая глубина: 16 бит
Метод сжатия: С потерями
Задержка видео: -152 мс.
Размер потока: 27,8 Мбайт (3%)
Меню

























Поделиться:




реклама партнёра


Вернуться к началу
 Профиль Отправить личное сообщение  
 
   Похожие торренты   Автор   Торрент   Размер 
В этой теме нет новых непрочитанных сообщений. Ну погоди! [01-25 из 25] (Вячеслав Котёночкин, Юрий Бутырин, Владимир Тарасов...) [1969-2006, мультфильм, комедия, семейный, приключения, DVD5]

Nickolas3435

696 | 58

4.36 ГБ

В этой теме нет новых непрочитанных сообщений. Бешеный пёс / War Dog [боевик, триллер, драма, военный, 1987] DVDRip, Dvo

salma3

2 | 3

1.45 ГБ

В этой теме нет новых непрочитанных сообщений. Новобранцы идут на войну / Les bidasses s'en vont en guerre [комедия, приключения, военный, 1974] DVD5, Dub

salma3

7 | 3

3.8 ГБ

В этой теме нет новых непрочитанных сообщений. Цель вижу [военный, драма, 2013] DVD5 [Лицензия]

Dracon

36 | 10

4.26 ГБ

В этой теме нет новых непрочитанных сообщений. Единичка (Кирилл Белевич) [военный, драма, 2015] DVD5 [Лицензия]

Dracon

345 | 13

4.21 ГБ

В этой теме нет новых непрочитанных сообщений. Уцелевший / Lone Survivor [военный, боевик, драма, 2013] DVD5, Dub [сжатый]

Dracon

10 | 2

4.37 ГБ

В этой теме нет новых непрочитанных сообщений. Батальонъ (Дмитрий Месхиев) [Драма, Военный, Исторический, 2015] DVD5 [iTunes]

Dracon

15 | 2

4.23 ГБ


Начать новую тему Ответить на тему  [ 1 сообщение ] 




Для Мосгорсуда, Роскомнадзора и рекламодателей:: mosgorsud-torrent[собачка]yandex.ru