Торрент файл
скачать торрент магнет ссылка Добавлен: 09 дек 2011, 23:58
Размер: 4.33 ГБ
Сидеров: 0
Личеров: 9
Автор

СообщениеДобавлено: 09 дек 2011, 23:58 

Не в сети
Супермодератор
Аватара пользователя
Дата регистрации:
11 апр 2010, 18:10
Спасибо: 5960 / 7
Сообщения: 56765
Идеальный муж



Перевод: Не требуется
Субтитры:отсутствуют
Формат: DVD5, DVD Video, MPEG2, AC3
Страна: СССР
Режиссер: Виктор Георгиев
Жанр: Комедия
Продолжительность: 01:27:40
Год выпуска: 1982

В ролях: Юрий Яковлев, Людмила Гурченко, Елена Коренева, Евгения Ханаева, Ээве Киви, Алла Будницкая, Игорь Дмитриев, Борис Химичев, Альберт Филозов, Иван Воронов

Описание: Сэр Роберт Чилтерн, один из столпов английского общества, восходящая звезда британской политики, слывший идеальным мужем и безупречным человеком, оказывается замешанным в грязном деле. Скандал неминуем. Но Чилтерна волнует не карьера и не мнение света — он хочет во что бы то ни стало сохранить любовь своей жены…

Рейтинг на КиноПоиск:7.696
Рейтинг на IMDB:6.4/10

Видео: 720x576, ( PAL4:3), MPEG2 Video, 25,000 кадр/сек, ~ 6500 Кбит/сек
Аудио: Русский, 48,0 КГц, AC3, 1 канал, ~256 Кбит/сек


Полное имя: I:\Фильмы DVD\Наши\Идеальный муж DVD-5\VIDEO_TS\VTS_02_1.VOB
Формат: MPEG-PS
Размер файла: 1024 Мбайт
Продолжительность: 20 м.
Общий поток: 6873 Кбит/сек
Видео
Идентификатор: 224 (0xE0)
Формат: MPEG Video
Версия формата: Version 2
Профиль формата: Main@Main
Параметр BVOP формата: Да
Параметр матрицы формата: По умолчанию
Продолжительность: 20 м.
Вид битрейта: Постоянный
Битрейт: 6500 Кбит/сек
Ширина: 720 пикс.
Высота: 576 пикс.
Соотношение сторон: 4:3
Частота кадров: 25,000 кадр/сек
Стандарт вещания: PAL
Цветовое пространство: YUV
Подвыборка цветности: 4:2:0
Битовая глубина: 8 бит
Тип развёртки: Чересстрочная
Порядок развёртки: Нижнее поле первое
Метод сжатия: С потерями
Бит/(Пиксели*Кадры): 0.627
Размер потока: 965 Мбайт (94%)
Аудио
Идентификатор: 128 (0x80)
Формат: AC-3
Формат/Информация: Audio Coding 3
Расширение режима: CM (complete main)
Продолжительность: 20 м.
Вид битрейта: Постоянный
Битрейт: 256 Кбит/сек
Канал(ы): 1 канал
Расположение каналов: Front: C
Частота: 48,0 КГц
Битовая глубина: 16 бит
Метод сжатия: С потерями
Размер потока: 38,1 Мбайт (4%)
Меню

























Поделиться:




реклама партнёра


Вернуться к началу
 Профиль Отправить личное сообщение  
 
   Похожие торренты   Автор   Торрент   Размер 
В этой теме нет новых непрочитанных сообщений. Жидкое небо / Liquid Sky [фантастика, комедия, 1982] DVD5, Avo

salma3

0 | 3

4.36 ГБ

В этой теме нет новых непрочитанных сообщений. Виктор/Виктория / Victor/Victoria [Мюзикл, мелодрама, комедия, 1982] BDRip 720p, Mvo

salma3

18 | 10

7.28 ГБ

В этой теме нет новых непрочитанных сообщений. Из 13 в 30 / 13 Going on 30 [Комедия, мелодрама, 2004] DVD5, Mvo

salma3

7 | 0

4.33 ГБ

В этой теме нет новых непрочитанных сообщений. Идеальный мужчина [01-04 из 04] [Комедия, мелодрама, 2014] WEB-DLRip-AVC

salma3

34 | 36

2.2 ГБ

В этой теме нет новых непрочитанных сообщений. Горько! 2 [комедия, 2014] DVD5 [Сжатый]

Dracon

46 | 4

4.36 ГБ

В этой теме нет новых непрочитанных сообщений. Бармен ( комедия, фэнтези, 2015) DVD5

marya111

0 | 4

4.37 ГБ

В этой теме нет новых непрочитанных сообщений. Тэмми / Tammy [Комедия, 2014] DVD5, Mvo+Sub [Лицензия]

Dracon

20 | 3

4.35 ГБ


Начать новую тему Ответить на тему  [ 1 сообщение ] 




Для Мосгорсуда, Роскомнадзора и рекламодателей:: mosgorsud-torrent[собачка]yandex.ru