Торрент файл
скачать торрент магнет ссылка Добавлен: 09 дек 2011, 23:57
Размер: 3.58 ГБ
Сидеров: 1
Личеров: 10
Автор

СообщениеДобавлено: 09 дек 2011, 23:57 

Не в сети
Супермодератор
Аватара пользователя
Дата регистрации:
11 апр 2010, 18:10
Спасибо: 5801 / 7
Сообщения: 56779
Казаки-разбойники


Перевод: Не требуется
Субтитры: отсутствуют
Формат: DVD5, DVD Video, MPEG2, AC3
Страна: СССР
Режиссер: Валентин Козачков
Жанр: Детский, приключения
Продолжительность: 01:02:10
Год выпуска: 1979

В ролях: Валентин Букин, Георгий Дрозд, Олег Корчиков, Лидия Королева, Степан Крылов, Петр Куприянец, Руслан Михневич, Сергей Михневич, Алексей Мишин, Татьяна Наумова

Описание: Мальчишки есть мальчишки… Их всегда влекут к себе тайна и риск. Их игры иногда настолько тесно вплетаются в реальную жизнь, что перестают быть безопасными. Но разве смогли бы они помочь выследить и обезвредить банду преступников, если бы были иными по натуре? И если бы с ними не было удивительной девченки — повелительницы всех окрестных собак…

Рейтинг на КиноПоиск:7.652
Рейтинг на IMDB:7.2/10

Видео: 720x576, ( PAL4:3), MPEG2 Video, 25,000 кадр/сек, ~ 9500 Кбит/сек
Аудио: Русский, 48,0 КГц, AC3, 2 канала(ов), ~256 Кбит/сек


Полное имя: I:\Фильмы DVD\Наши\Казаки-разбойники DVD-5\VIDEO_TS\VTS_01_1.VOB
Формат: MPEG-PS
Размер файла: 1024 Мбайт
Продолжительность: 24 м.
Общий поток: 5861 Кбит/сек
Видео
Идентификатор: 224 (0xE0)
Формат: MPEG Video
Версия формата: Version 2
Профиль формата: Main@Main
Параметр BVOP формата: Да
Параметр матрицы формата: По умолчанию
Параметры GOP формата: M=3, N=12
Продолжительность: 24 м.
Вид битрейта: Переменный
Битрейт: 5488 Кбит/сек
Номинальный битрейт: 9500 Кбит/сек
Ширина: 720 пикс.
Высота: 576 пикс.
Соотношение сторон: 4:3
Частота кадров: 25,000 кадр/сек
Стандарт вещания: PAL
Цветовое пространство: YUV
Подвыборка цветности: 4:2:0
Битовая глубина: 8 бит
Тип развёртки: Чересстрочная
Порядок развёртки: Верхнее поле первое
Метод сжатия: С потерями
Бит/(Пиксели*Кадры): 0.529
Размер потока: 959 Мбайт (94%)
Аудио
Идентификатор: 128 (0x80)
Формат: AC-3
Формат/Информация: Audio Coding 3
Расширение режима: CM (complete main)
Продолжительность: 24 м.
Вид битрейта: Постоянный
Битрейт: 256 Кбит/сек
Канал(ы): 2 канала(ов)
Расположение каналов: Front: L R
Частота: 48,0 КГц
Битовая глубина: 16 бит
Метод сжатия: С потерями
Задержка видео: -80 мс.
Размер потока: 44,7 Мбайт (4%)
Меню




















Поделиться:




реклама партнёра


Вернуться к началу
 Профиль Отправить личное сообщение  
 
   Похожие торренты   Автор   Торрент   Размер 
В этой теме нет новых непрочитанных сообщений. За нас двоих / A nous deux [мелодрама, криминал, 1979] DVD5, Mvo+Sub

salma3

2 | 4

4.36 ГБ

В этой теме нет новых непрочитанных сообщений. Чебурашка / Cheburashka [Мультфильм, детский, семейный, 2014] DVD5 [Лицензия]

Dracon

361 | 21

3.88 ГБ

В этой теме нет новых непрочитанных сообщений. Летающие звери [S01] [мультфильм, короткометражка, детский, 2012] DVD5 [Лицензия]

Ανδρέας

7 | 5

2.85 ГБ

В этой теме нет новых непрочитанных сообщений. Подарок на Рождество / Jingle All The Way [Детский, комедия, семейный, 1996] DVD5, Mvo [Лицензия]

salma3

21 | 7

4.24 ГБ

В этой теме нет новых непрочитанных сообщений. Дневник мамы первоклассника [детский, мелодрама, семейный, 2014] DVD5 [Лицензия]

Dracon

153 | 15

4.09 ГБ

В этой теме нет новых непрочитанных сообщений. Казаки [01-04 из 16] (Детектив, приключения, 2016) HDTVRip 720p от MediaClub

marya111

40 | 7

4.57 ГБ

В этой теме нет новых непрочитанных сообщений. Олли и сокровища пиратов / Dive Olly Dive and the Pirate Treasure [мультфильм, семейный, детский, 2014] DVD5, Dub [лицензия]

Dracon

48 | 31

3.27 ГБ


Начать новую тему Ответить на тему  [ 1 сообщение ] 




Для Мосгорсуда, Роскомнадзора и рекламодателей:: mosgorsud-torrent[собачка]yandex.ru