Торрент файл
скачать торрент магнет ссылка Добавлен: 09 дек 2011, 23:57
Размер: 4.14 ГБ
Сидеров: 0
Личеров: 5
Автор

СообщениеДобавлено: 09 дек 2011, 23:57 

Не в сети
Супермодератор
Аватара пользователя
Дата регистрации:
11 апр 2010, 18:10
Спасибо: 5801 / 7
Сообщения: 56779
Карантин


Перевод: Не требуется
Субтитры: отсутствуют
Формат: DVD5, DVD Video, MPEG2, AC3
Страна: СССР
Режиссер: Илья Фрэз
Жанр: Комедия
Продолжительность: 01:16:19
Год выпуска: 1983

В ролях: Айлика Кремер, Евгения Симонова, Юрий Дуванов, Светлана Немоляева, Юрий Богатырев, Татьяна Пельтцер, Павел Кадочников, Лидия Федосеева-Шукшина, Елена Соловей, Нина Архипова

Описание: Когда в детском саду объявили карантин, оказалось, что пятилетнюю Машу не у кого оставить, все заняты неотложными делами. Даже прабабушка и прадедушка тоже работают. Поэтому Маша будет жить у родственников, друзей, коллег и случайных знакомых, а заодно, быть может, узнает много полезного, интересного и увлекательного.

Рейтинг на КиноПоиск:7.735
Рейтинг на IMDB:6.5/10

Видео: 720x576, ( PAL4:3), MPEG2 Video, 25,000 кадр/сек, ~ 6000 Кбит/сек
Аудио: Русский, 48,0 КГц, AC3, 2 канала(ов), ~1536 Кбит/сек

Доп. информация: Релиз на DVD 29 октября 2009, «Ruscico»

Полное имя: I:\Фильмы DVD\Наши\Карантин DVD-5\VIDEO_TS\VTS_01_1.VOB
Формат: MPEG-PS
Размер файла: 1024 Мбайт
Продолжительность: 18 м.
Общий поток: 7725 Кбит/сек
Видео
Идентификатор: 224 (0xE0)
Формат: MPEG Video
Версия формата: Version 2
Профиль формата: Main@Main
Параметр BVOP формата: Да
Параметр матрицы формата: По умолчанию
Параметры GOP формата: M=2, N=4
Продолжительность: 18 м.
Вид битрейта: Постоянный
Битрейт: 6000 Кбит/сек
Ширина: 720 пикс.
Высота: 576 пикс.
Соотношение сторон: 4:3
Частота кадров: 25,000 кадр/сек
Стандарт вещания: PAL
Цветовое пространство: YUV
Подвыборка цветности: 4:2:0
Битовая глубина: 8 бит
Тип развёртки: Чересстрочная
Порядок развёртки: Верхнее поле первое
Метод сжатия: С потерями
Бит/(Пиксели*Кадры): 0.579
Размер потока: 800 Мбайт (78%)
Аудио
Идентификатор: 160 (0xA0)
Формат: PCM
Параметр Endianness формата: Big
Параметр Sign формата: Signed
Режим смешивания: DVD-Video
Продолжительность: 18 м.
Вид битрейта: Постоянный
Битрейт: 1536 Кбит/сек
Канал(ы): 2 канала(ов)
Расположение каналов: Front: L R
Частота: 48,0 КГц
Битовая глубина: 16 бит
Задержка видео: -40 мс.
Размер потока: 204 Мбайт (20%)
Меню



























Поделиться:




реклама партнёра


Вернуться к началу
 Профиль Отправить личное сообщение  
 
   Похожие торренты   Автор   Торрент   Размер 
В этой теме нет новых непрочитанных сообщений. Мой наставник / My Tutor [Комедия, мелодрама, 1983] DVD5, Avo+Sub

salma3

0 | 4

4.16 ГБ

В этой теме нет новых непрочитанных сообщений. Из 13 в 30 / 13 Going on 30 [Комедия, мелодрама, 2004] DVD5, Mvo

salma3

7 | 0

4.33 ГБ

В этой теме нет новых непрочитанных сообщений. Карантин / Containment [01x01-06 из 10] [Драма, ужасы, 2016] WEB-DLRip, Mvo [Newstudio]

salma3

119 | 134

3.18 ГБ

В этой теме нет новых непрочитанных сообщений. За кадром... / In a World... [комедия, 2013] DVD5, Mvo+Sub

salma3

3 | 2

4.06 ГБ

В этой теме нет новых непрочитанных сообщений. Ёлки 3 [Комедия, 2013] DVD5 [Лицензия]

Dracon

64 | 2

4.37 ГБ

В этой теме нет новых непрочитанных сообщений. Горько! 2 [комедия, 2014] DVD5 [Сжатый]

Dracon

46 | 4

4.36 ГБ

В этой теме нет новых непрочитанных сообщений. Бармен ( комедия, фэнтези, 2015) DVD5

marya111

0 | 4

4.37 ГБ


Начать новую тему Ответить на тему  [ 1 сообщение ] 




Для Мосгорсуда, Роскомнадзора и рекламодателей:: mosgorsud-torrent[собачка]yandex.ru