COVID-19 - Последняя информация о коронавирусе на сайте Минздрава




Торрент файл
скачать торрент магнет ссылка Добавлен: 09 дек 2011, 23:57
Размер: 2.88 ГБ
Сидеров: 7
Личеров: 9
Автор

СообщениеДобавлено: 09 дек 2011, 23:57 

Не в сети
Супермодератор
Аватара пользователя
Дата регистрации:
11 апр 2010, 18:10
Спасибо: 6059 / 7
Сообщения: 56660
Кащей Бессмертный


Перевод: Не требуется
Субтитры: отсутствуют
Формат: DVD5, DVD Video, MPEG2, AC3
Страна: СССР
Режиссер: Александр Роу
Жанр: Детский, фэнтези
Продолжительность: 01:03:29
Год выпуска: 1944

В ролях: Александр Ширшов, Георгий Милляр, Сергей Столяров, Галина Григорьева, Сергей Филиппов, Эммануил Геллер, Л. Кровицкий, Иван Рыжов, Сергей Троицкий, Иван Бобров

Описание: Эпическая сказка, снятая в годы Второй Мировой войны. Русские богатыри Никита Кожемяка и Булат Балагур спасают землю русскую от вражьих полчищ Кащея Бессмертного и освобождают красавицу Марью Мореву.

Рейтинг на КиноПоиск:7.652
Рейтинг на IMDB:6.8/10

Видео: 720x576, ( PAL4:3), MPEG2 Video, 25,000 кадр/сек, ~ 8000 Кбит/сек
Аудио: Русский, 48,0 КГц, AC3, 2 канала(ов), ~192 Кбит/сек
Доп. информация: Релиз на DVD 28 октября 2010, «Ruscico»

Полное имя: C:\Users\Петр\Documents\Downloads_p2p\Кащей бессмертный\VIDEO_TS\VTS_01_1.VOB
Формат: MPEG-PS
Размер файла: 1024 Мбайт
Продолжительность: 21 м.
Общий поток: 6628 Кбит/сек
Видео
Идентификатор: 224 (0xE0)
Формат: MPEG Video
Версия формата: Version 2
Профиль формата: Main@Main
Параметр BVOP формата: Да
Параметр матрицы формата: По умолчанию
Продолжительность: 21 м.
Вид битрейта: Переменный
Битрейт: 6304 Кбит/сек
Номинальный битрейт: 8000 Кбит/сек
Ширина: 720 пикс.
Высота: 576 пикс.
Соотношение сторон: 4:3
Частота кадров: 25,000 кадр/сек
Стандарт вещания: PAL
Цветовое пространство: YUV
Подвыборка цветности: 4:2:0
Битовая глубина: 8 бит
Тип развёртки: Чересстрочная
Порядок развёртки: Нижнее поле первое
Метод сжатия: С потерями
Бит/(Пиксели*Кадры): 0.608
Размер потока: 974 Мбайт (95%)
Аудио
Идентификатор: 128 (0x80)
Формат: AC-3
Формат/Информация: Audio Coding 3
Расширение режима: CM (complete main)
Продолжительность: 21 м.
Вид битрейта: Постоянный
Битрейт: 192 Кбит/сек
Канал(ы): 2 канала(ов)
Расположение каналов: Front: L R
Частота: 48,0 КГц
Битовая глубина: 16 бит
Метод сжатия: С потерями
Размер потока: 29,7 Мбайт (3%)
Меню




























Поделиться:



Скачать книги и аудио книги через торрент


Вернуться к началу
 Профиль Отправить личное сообщение  
 
   Похожие торренты   Автор   Торрент   Размер 
В этой теме нет новых непрочитанных сообщений. Карнивал Роу / Carnival Row [S01] [Фэнтези, триллер, детектив, 2019] WEBRip, Mvo [Profix Media]

Haint

1 | 0

5.07 ГБ

В этой теме нет новых непрочитанных сообщений. Карнивал Роу / Carnival Row [01x01 из 08] [фэнтези, триллер, детектив, 2019] WEBRip 720p, Dvo [Kelix]

salma3

0 | 0

1.18 ГБ

В этой теме нет новых непрочитанных сообщений. Карнивал Роу / Carnival Row [S01] [фэнтези, триллер, детектив, 2019] WEBRip 1080p, Dvo [Gears Media]

salma3

0 | 0

18.84 ГБ

В этой теме нет новых непрочитанных сообщений. Карнивал Роу / Carnival Row [S01] [фэнтези, триллер, детектив, 2019] WEBRip 720p, Dvo [Gears Media]

salma3

0 | 0

10.18 ГБ

В этой теме нет новых непрочитанных сообщений. Карнивал Роу / Carnival Row [S01] [Фэнтези, триллер, детектив, 2019] WEBRip 720p, Mvo [Profix Media]

Haint

1 | 0

9.69 ГБ

В этой теме нет новых непрочитанных сообщений. Карнивал Роу / Carnival Row [S01] [Фэнтези, триллер, детектив, 2019] WEBRip 1080p, Mvo [Profix Media]

Haint

3 | 0

19 ГБ

В этой теме нет новых непрочитанных сообщений. Карнивал Роу / Carnival Row [S01] [фэнтези, триллер, детектив, 2019] WEB-DL 2160p, Mvo [4K] [LostFilm, AlexFilm, HDRezka Studio]

salma3

0 | 0

88.42 ГБ


Начать новую тему Ответить на тему  [ 1 сообщение ] 




Для Мосгорсуда, Роскомнадзора и рекламодателей:: rstracker[собака]yandex.ru
cron