Торрент файл
скачать торрент магнет ссылка Добавлен: 09 дек 2011, 23:55
Размер: 3.79 ГБ
Сидеров: 2
Личеров: 7
Автор

СообщениеДобавлено: 09 дек 2011, 23:55 

Не в сети
Супермодератор
Аватара пользователя
Дата регистрации:
11 апр 2010, 18:10
Спасибо: 5803 / 7
Сообщения: 56779
Два долгих гудка в тумане [Ремастеринг]



Перевод: Не требуется
Субтитры:отсутствуют
Формат: DVD5, DVD Video, MPEG2, AC3
Страна: СССР
Режиссер: Владимир Родченко
Жанр: Боевик
Продолжительность: 01:15:37
Год выпуска: 1980

В ролях: Александр Пороховщиков, Николай Гринько, Елена Капица, Дагун Омаев, Любовь Виролайнен, Виктор Проскурин, Андрей Толубеев, Александр Коваленко, Александр Суснин, Пеэтер Урбла

Описание: На дальнем севере, в безлюдной тундре вынужденную посадку совершает гидросамолет с инкассаторами, везущими немалую сумму денег. Самолет уносит ветер, и на другом берегу озера неизвестный совершает кражу, а свидетеля убивает на борту пассажирского теплохода, совершающего последний рейс перед закрытием навигации. Среди пестрой компании пассажиров скрывается рецидивист, и капитан начинает собственное расследование…

Рейтинг на КиноПоиск:7.299
Рейтинг на IMDB:6.8/10

Видео: 720x576, ( PAL 16:9), MPEG2 Video, 25,000 кадр/сек, ~ 9000 Кбит/сек
Аудио #1: Русский, 48,0 КГц, AC3, 6 канала(ов), ~448 Кбит/сек
Аудио #2: Русский, 48,0 КГц, AC3, 2 канала(ов), ~192 Кбит/сек


Полное имя: I:\Фильмы DVD\Наши\Два долгих гудка в тумане DVD-5\VIDEO_TS\VTS_02_1.VOB
Формат: MPEG-PS
Размер файла: 1024 Мбайт
Продолжительность: 19 м.
Общий поток: 7178 Кбит/сек
Видео
Идентификатор: 224 (0xE0)
Формат: MPEG Video
Версия формата: Version 2
Профиль формата: Main@Main
Параметр BVOP формата: Да
Параметр матрицы формата: По умолчанию
Продолжительность: 19 м.
Вид битрейта: Переменный
Битрейт: 6395 Кбит/сек
Номинальный битрейт: 9000 Кбит/сек
Ширина: 720 пикс.
Высота: 576 пикс.
Соотношение сторон: 16:9
Частота кадров: 25,000 кадр/сек
Стандарт вещания: PAL
Цветовое пространство: YUV
Подвыборка цветности: 4:2:0
Битовая глубина: 8 бит
Тип развёртки: Чересстрочная
Порядок развёртки: Верхнее поле первое
Метод сжатия: С потерями
Бит/(Пиксели*Кадры): 0.617
Размер потока: 912 Мбайт (89%)
Аудио #1
Идентификатор: 128 (0x80)
Формат: AC-3
Формат/Информация: Audio Coding 3
Расширение режима: CM (complete main)
Продолжительность: 19 м.
Вид битрейта: Постоянный
Битрейт: 448 Кбит/сек
Канал(ы): 6 канала(ов)
Расположение каналов: Front: L C R, Side: L R, LFE
Частота: 48,0 КГц
Битовая глубина: 16 бит
Метод сжатия: С потерями
Размер потока: 63,9 Мбайт (6%)
Аудио #2
Идентификатор: 129 (0x81)
Формат: AC-3
Формат/Информация: Audio Coding 3
Расширение режима: CM (complete main)
Продолжительность: 19 м.
Вид битрейта: Постоянный
Битрейт: 192 Кбит/сек
Канал(ы): 2 канала(ов)
Расположение каналов: Front: L R
Частота: 48,0 КГц
Битовая глубина: 16 бит
Метод сжатия: С потерями
Размер потока: 27,4 Мбайт (3%)
Меню

























Поделиться:




реклама партнёра


Вернуться к началу
 Профиль Отправить личное сообщение  
 
   Похожие торренты   Автор   Торрент   Размер 
В этой теме нет новых непрочитанных сообщений. Ну погоди! [01-25 из 25] (Вячеслав Котёночкин, Юрий Бутырин, Владимир Тарасов...) [1969-2006, мультфильм, комедия, семейный, приключения, DVD5]

Nickolas3435

696 | 58

4.36 ГБ

В этой теме нет новых непрочитанных сообщений. 22 минуты [боевик, 2014] DVD5

Dracon

39 | 8

4.37 ГБ

В этой теме нет новых непрочитанных сообщений. Восьмерка [боевик, мелодрама, 2013] DVD5 [лицензия]

Dracon

193 | 17

4.13 ГБ

В этой теме нет новых непрочитанных сообщений. Противостояние / The One [фантастика, боевик, триллер, 2001] DVD5, Dub+Avo+Sub

salma3

16 | 5

4.36 ГБ

В этой теме нет новых непрочитанных сообщений. Погнали! / Getaway [Боевик, криминал, 2013] DVD5, Mvo+Sub

salma3

3 | 2

4.37 ГБ

В этой теме нет новых непрочитанных сообщений. Геракл / Hercules [боевик, приключения, 2014] DVD5, Dub+Sub [лицензия]

Dracon

41 | 5

4.37 ГБ

В этой теме нет новых непрочитанных сообщений. Виктор / Viktor [Боевик, триллер, 2014] DVD5, Dub [лицензия]

Dracon

117 | 5

4.19 ГБ


Начать новую тему Ответить на тему  [ 1 сообщение ] 




Для Мосгорсуда, Роскомнадзора и рекламодателей:: mosgorsud-torrent[собачка]yandex.ru