Торрент файл
скачать торрент магнет ссылка Добавлен: 09 дек 2011, 23:55
Размер: 4.3 ГБ
Сидеров: 1
Личеров: 8
Автор

СообщениеДобавлено: 09 дек 2011, 23:55 

Не в сети
Супермодератор
Аватара пользователя
Дата регистрации:
11 апр 2010, 18:10
Спасибо: 5960 / 7
Сообщения: 56765
Его звали Роберт


Перевод: Не требуется
Субтитры: Русские, английские, немецкие
Формат: DVD5, DVD Video, MPEG2, AC3
Страна: СССР
Режиссер: Илья Ольшвангер
Жанр: Фантастика, комедия
Продолжительность: 01:20:43
Год выпуска: 1967
В ролях: Олег Стриженов,Марианна Вертинская, Алексей Драницын, Пантелеймон Крымов, Нина Мамаева, Марсель Марсо,Владимир Поболь,Михаил Пуговкин, Юрий Толубеев, Игорь Ефимов

Описание: Молодой ученый создает биохимическую модель человека. Роботу «РБ-235», точной копии своего создателя, дали возможность выйти за пределы института и пожить по-человечески.

Рейтинг на КиноПоиск:6.945
Рейтинг на IMDB:6.6/10

Видео: 720x480, ( NTSC16:9), MPEG2 Video, 23,970 кадр/сек, ~ 5733 Кбит/сек
Аудио #1:Русский, 48,0 КГц, AC3, 6 канала(ов), ~448 Кбит/сек
Аудио #2:Русский, 48,0 КГц, AC3, 2 канала(ов), ~192 Кбит/сек

Доп. информация: Релиз на DVD 3 февраля 2009, «Азимут»

Полное имя: I:\Фильмы DVD\Наши\Его звали Роберт DVD-5\VIDEO_TS\VTS_03_1.VOB
Формат: MPEG-PS
Размер файла: 1024 Мбайт
Продолжительность: 22 м.
Общий поток: 6503 Кбит/сек
Видео
Идентификатор: 224 (0xE0)
Формат: MPEG Video
Версия формата: Version 2
Профиль формата: Main@Main
Параметр BVOP формата: Да
Параметр матрицы формата: По умолчанию
Продолжительность: 22 м.
Вид битрейта: Переменный
Битрейт: 5733 Кбит/сек
Ширина: 720 пикс.
Высота: 480 пикс.
Соотношение сторон: 16:9
Частота кадров: 29,970 кадр/сек
Стандарт вещания: NTSC
Цветовое пространство: YUV
Подвыборка цветности: 4:2:0
Битовая глубина: 8 бит
Метод сжатия: С потерями
Бит/(Пиксели*Кадры): 0.554
Размер потока: 903 Мбайт (88%)
Аудио #1
Идентификатор: 128 (0x80)
Формат: AC-3
Формат/Информация: Audio Coding 3
Расширение режима: CM (complete main)
Продолжительность: 22 м.
Вид битрейта: Постоянный
Битрейт: 448 Кбит/сек
Канал(ы): 6 канала(ов)
Расположение каналов: Front: L C R, Side: L R, LFE
Частота: 48,0 КГц
Битовая глубина: 16 бит
Метод сжатия: С потерями
Размер потока: 70,5 Мбайт (7%)
Аудио #2
Идентификатор: 129 (0x81)
Формат: AC-3
Формат/Информация: Audio Coding 3
Расширение режима: CM (complete main)
Продолжительность: 22 м.
Вид битрейта: Постоянный
Битрейт: 192 Кбит/сек
Канал(ы): 2 канала(ов)
Расположение каналов: Front: L R
Частота: 48,0 КГц
Битовая глубина: 16 бит
Метод сжатия: С потерями
Размер потока: 30,2 Мбайт (3%)
Текст #1
Идентификатор: 32 (0x20)
Формат: RLE
Формат/Информация: Run-length encoding
Текст #2
Идентификатор: 33 (0x21)
Формат: RLE
Формат/Информация: Run-length encoding
Текст #3
Идентификатор: 34 (0x22)
Формат: RLE
Формат/Информация: Run-length encoding
Меню




























Поделиться:




реклама партнёра


Вернуться к началу
 Профиль Отправить личное сообщение  
 
   Похожие торренты   Автор   Торрент   Размер 
В этой теме нет новых непрочитанных сообщений. Дивергент, глава 2: Инсургент / Insurgent (Роберт Швентке) [фантастика, триллер, приключения, 2015] DVD5, Dub+Sub [Лицензия]

Dracon

545 | 51

4.37 ГБ

В этой теме нет новых непрочитанных сообщений. Дикие лошади / Wild Horses (Роберт Дювалл) [Драма, криминал, 2015] DVD5 [Sunny-Films]

Dracon

26 | 26

4.37 ГБ

В этой теме нет новых непрочитанных сообщений. Жидкое небо / Liquid Sky [фантастика, комедия, 1982] DVD5, Avo

salma3

0 | 3

4.36 ГБ

В этой теме нет новых непрочитанных сообщений. Полное превращение (Филипп Коршунов) [комедия, фантастика, 2015] DVD5 [Лицензия]

Dracon

788 | 188

3.94 ГБ

В этой теме нет новых непрочитанных сообщений. Пиксели / Pixels (Крис Коламбус) [фантастика, боевик, комедия, 2015] DVD5, Dub+Sub [Лицензия]

Dracon

315 | 67

4.37 ГБ

В этой теме нет новых непрочитанных сообщений. Дом / Home (Тим Джонсон) [мультфильм, фантастика, фэнтези, комедия, приключения, семейный, 2015] DVD5, Dub+Sub [Лицензия]

Dracon

3 | 0

4.36 ГБ

В этой теме нет новых непрочитанных сообщений. Противостояние / The One [фантастика, боевик, триллер, 2001] DVD5, Dub+Avo+Sub

salma3

16 | 5

4.36 ГБ


Начать новую тему Ответить на тему  [ 1 сообщение ] 




Для Мосгорсуда, Роскомнадзора и рекламодателей:: mosgorsud-torrent[собачка]yandex.ru