Торрент файл
скачать торрент магнет ссылка Добавлен: 09 дек 2011, 23:54
Размер: 3.86 ГБ
Сидеров: 0
Личеров: 8
Автор

СообщениеДобавлено: 09 дек 2011, 23:54 

Не в сети
Супермодератор
Аватара пользователя
Дата регистрации:
11 апр 2010, 18:10
Спасибо: 5928 / 7
Сообщения: 56776
Искренне ваш...



Перевод: Не требуется
cубтитры:отсутствуют
Формат: DVD5, DVD Video, MPEG2, AC3
Страна: СССР
Режиссер: Алла Сурикова
Жанр: Комедия
Продолжительность: 01:21:04
Год выпуска: 1985

В ролях: Виталий Соломин, Вера Глаголева, Виктор Ильичев, Ролан Быков, Армен Джигарханян, Лариса Удовиченко, Николай Парфёнов, Леонид Куравлёв, Ирина Шмелева, Елена Санаева

Описание: Молодой сотрудник обсерватории, влюбленный в звезды, однажды отправился на поиски нового объектива и вскоре так увлекся, что буквально посвятил жизнь добыванию дефицита. Только земная любовь заставляет героя остановиться и задуматься…

Рейтинг на КиноПоиск:6.689
Рейтинг на IMDB:6.6/10

Видео: 720x576, ( PAL 4:3), MPEG2 Video, 25,000 кадр/сек, ~ 6300 Кбит/сек
Аудио: Русский, 48,0 КГц, AC3, 2 канала(ов), ~192 Кбит/сек


Полное имя: F:\Фильмы DVD\Искренне Ваш DVD-5\VIDEO_TS\VTS_03_1.VOB
Формат: MPEG-PS
Размер файла: 1024 Мбайт
Продолжительность: 21 м.
Общий поток: 6609 Кбит/сек
Видео
Идентификатор: 224 (0xE0)
Формат: MPEG Video
Версия формата: Version 2
Профиль формата: Main@Main
Параметр BVOP формата: Да
Параметр матрицы формата: По умолчанию
Продолжительность: 21 м.
Вид битрейта: Постоянный
Битрейт: 6300 Кбит/сек
Ширина: 720 пикс.
Высота: 576 пикс.
Соотношение сторон: 4:3
Частота кадров: 25,000 кадр/сек
Стандарт вещания: PAL
Цветовое пространство: YUV
Подвыборка цветности: 4:2:0
Битовая глубина: 8 бит
Тип развёртки: Чересстрочная
Порядок развёртки: Нижнее поле первое
Метод сжатия: С потерями
Бит/(Пиксели*Кадры): 0.608
Размер потока: 974 Мбайт (95%)
Аудио
Идентификатор: 128 (0x80)
Формат: AC-3
Формат/Информация: Audio Coding 3
Расширение режима: CM (complete main)
Продолжительность: 21 м.
Вид битрейта: Постоянный
Битрейт: 192 Кбит/сек
Канал(ы): 2 канала(ов)
Расположение каналов: Front: L R
Частота: 48,0 КГц
Битовая глубина: 16 бит
Метод сжатия: С потерями
Размер потока: 29,7 Мбайт (3%)
Меню

























Поделиться:




реклама партнёра


Вернуться к началу
 Профиль Отправить личное сообщение  
 
   Похожие торренты   Автор   Торрент   Размер 
В этой теме нет новых непрочитанных сообщений. Дух студента / School Spirit [комедия, фэнтези, 1985] DVD5, Avo

salma3

99 | 33

4.29 ГБ

В этой теме нет новых непрочитанных сообщений. Демоны / Demons / Dèmoni [Ужасы, 1985] DVD5, Mvo

salma3

10 | 3

4.37 ГБ

В этой теме нет новых непрочитанных сообщений. Из 13 в 30 / 13 Going on 30 [Комедия, мелодрама, 2004] DVD5, Mvo

salma3

7 | 0

4.33 ГБ

В этой теме нет новых непрочитанных сообщений. Вредитель / The Pest [комедия, 1997] DVD5, Mvo+Sub

salma3

10 | 3

3.93 ГБ

В этой теме нет новых непрочитанных сообщений. Бармен ( комедия, фэнтези, 2015) DVD5

marya111

0 | 4

4.37 ГБ

В этой теме нет новых непрочитанных сообщений. Горько! 2 [комедия, 2014] DVD5 [Сжатый]

Dracon

46 | 4

4.36 ГБ

В этой теме нет новых непрочитанных сообщений. А вот и она / And So It Goes [Драма, мелодрама, Комедия, 2014] DVD5, Dub [Лицензия]

Dracon

32 | 3

3.96 ГБ


Начать новую тему Ответить на тему  [ 1 сообщение ] 




Для Мосгорсуда, Роскомнадзора и рекламодателей:: mosgorsud-torrent[собачка]yandex.ru