Торрент файл
скачать торрент магнет ссылка Добавлен: 19 сен 2018, 20:54
Размер: 5.49 ГБ
Сидеров: 0
Личеров: 0
Статус: (salma3)
Автор

СообщениеДобавлено: 19 сен 2018, 20:54 

Не в сети
Супермодератор
Аватара пользователя
Дата регистрации:
15 фев 2012, 16:44
Возраст: 29
Спасибо: 7377 / 2147
Сообщения: 75805
Год выхода: 2018
Жанр: Фантастика
Режиссер: Сергей Мокрицкий

В ролях: Никита Волков, Евгений Ткачук, Ольга Боровская, Ирина Горбачёва, Юлия Пересильд, Северия Янушаускайте, Евгений Цыганов, Андрей Мерзликин, Никита Тарасов, Ирина Хакамада, Ирина Демидкина, Александр Плющев, Ёла Санько, Аня Пересильд, Дарья Слонская (Юрченко), Яна Чигир

Описание: Молодой москвич Кирилл — талантливый дизайнер компьютерных игр. В один прекрасный день он оказывается напрочь стертым из памяти всех, кого он знал и любил. Кирилл узнает, что выбран для важной и таинственной миссии. Его предназначение — стать таможенником между параллельными мирами, коих во Вселенной десятки. Сможет ли Кирилл разгадать тайну этих таинственных миров и того, кто и зачем ими управляет?

Страна: Россия
Продолжительность: 01:55:27
Язык: Русский

Файл
Исходник: (Немецкий Blu-ray 1080р)
Кодек: MPEG-2
Качество: DVD9
Видео: MPEG2, NTSC 16:9 (720x480@853x480) VBR, 23,976 кадра/сек
Звук: Русский / Немецкий DD 5.1 (448 Kbps)




Title:
Size: 5.49 Gb ( 5 752 960 KBytes ) - DVD-9
Enabled regions: 1, 2, 3, 4, 5, 6, 7, 8

VTS_01 :
Play Length: 01:55:27+00:02:04+00:01:59
Video: NTSC 16:9 (720x480) VBR, Auto Pan&Scan
Audio:
Russian (Dolby AC3, 6 ch)
Deutsch (Dolby AC3, 6 ch)

Menu Video:
NTSC 4:3 (720x480) VBR
Menu English Language Unit :
Root Menu

Общее
Полное имя : G:ААА2WeltengangerVIDEO_TSVTS_01_1.VOB
Формат : MPEG-PS
Размер файла : 1000 Мбайт
Продолжительность : 20 м.
Режим общего битрейта : Переменный
Общий поток : 6843 Кбит/сек

Видео
Идентификатор : 224 (0xE0)
Формат : MPEG Video
Версия формата : Version 2
Профиль формата : Main@Main
Параметр BVOP формата : Да
Параметр матрицы формата : По умолчанию
Параметр GOP формата : M=3, N=12
Продолжительность : 20 м.
Вид битрейта : Переменный
Битрейт : 5811 Кбит/сек
Максимальный битрейт : 8320 Кбит/сек
Ширина : 720 пикселей
Высота : 480 пикселей
Соотношение сторон : 16:9
Частота кадров : 23,976 кадра/сек
Стандарт вещания : NTSC
Цветовое пространство : YUV
Субдискретизация насыщенности : 4:2:0
Битовая глубина : 8 бит
Тип развёртки : Прогрессивная
Порядок развёртки : 2:3 Pulldown
Метод сжатия : С потерями
Бит/(Пиксели*Кадры) : 0.701
TimeCode_FirstFrame : 00:00:00;00
TimeCode_Source : Group of pictures header
Размер потока : 849 Мбайт (85%)

Аудио #1
Идентификатор : 189 (0xBD)-128 (0x80)
Формат : AC-3
Формат/Информация : Audio Coding 3
Расширение режима : CM (complete main)
Параметр Endianness формата : Big
Режим смешивания : DVD-Video
Продолжительность : 20 м.
Вид битрейта : Постоянный
Битрейт : 448 Кбит/сек
Каналы : 6 каналов
Расположение каналов : Front: L C R, Side: L R, LFE
Частота : 48,0 КГц
Битовая глубина : 16 бит
Метод сжатия : С потерями
Размер потока : 65,5 Мбайт (7%)

Аудио #2
Идентификатор : 189 (0xBD)-129 (0x81)
Формат : AC-3
Формат/Информация : Audio Coding 3
Расширение режима : CM (complete main)
Параметр Endianness формата : Big
Режим смешивания : DVD-Video
Продолжительность : 20 м.
Вид битрейта : Постоянный
Битрейт : 448 Кбит/сек
Каналы : 6 каналов
Расположение каналов : Front: L C R, Side: L R, LFE
Частота : 48,0 КГц
Битовая глубина : 16 бит
Метод сжатия : С потерями
Размер потока : 65,5 Мбайт (7%)

Меню



Релиз:


_________________
Проголосуй за трекер Открытый торрент трекер - RUS-MEDIA.ORG

Проголосуй Открытый торрент трекер - RUS-MEDIA.ORG


Вернуться к началу
 Профиль Отправить личное сообщение  
 
   Похожие торренты   Автор   Торрент   Размер 
В этой теме нет новых непрочитанных сообщений. Черновик [Фантастика, 2018] BDRip [Лицензия]

salma3

495 | 107

1.46 ГБ

В этой теме нет новых непрочитанных сообщений. Черновик [Фантастика, 2018] Blu-ray 1080p [Лицензия]

salma3

0 | 0

38.72 ГБ

В этой теме нет новых непрочитанных сообщений. Черновик [Фантастика, 2018] BDRip 720p [Лицензия]

salma3

0 | 0

6.36 ГБ

В этой теме нет новых непрочитанных сообщений. Черновик [Фантастика, 2018] BDRemux 1080p [Лицензия]

salma3

0 | 0

31.63 ГБ

В этой теме нет новых непрочитанных сообщений. Черновик [Фантастика, 2018] WEB-DL 1080p

salma3

4334 | 870

4.19 ГБ

В этой теме нет новых непрочитанных сообщений. Черновик [Фантастика, 2018] WEB-DLRip

salma3

713 | 236

746.48 МБ

В этой теме нет новых непрочитанных сообщений. Черновик [Фантастика, 2018] WEB-DLRip

salma3

50 | 3

1.46 ГБ


Начать новую тему Ответить на тему  [ 1 сообщение ] 




Для Мосгорсуда, Роскомнадзора и рекламодателей:: mosgorsud-torrent[собачка]yandex.ru
cron