Торрент файл
скачать торрент магнет ссылка Добавлен: 27 июн 2015, 20:43
Размер: 5.69 ГБ
Сидеров: 3
Личеров: 1
Автор

СообщениеДобавлено: 27 июн 2015, 20:43 

Не в сети
Зам. Админа
Аватара пользователя
Дата регистрации:
02 дек 2010, 12:39
Спасибо: 12461 / 214
Сообщения: 27968
Год выхода: 2015
Жанр: Драма,Военный
Режиссер: Кирилл Белевич
В ролях: Андрей Мерзликин, Илья Коробко, Анна Прус, Арина Борисова, Александр Вершинин, Михаил Евланов, Микаэл Джанибекян, Сергей Габриэлян, Добрыня Белевич-Оболенский, Якуб Здруйковский

О фильме: Август 1944-го. Советские войска продолжают наступление в Восточной Польше. Подразделение старшего лейтенанта Егорова получает задание — удержать мост, через который планируется переправа частей Советской Армии. Прибыв на позицию, бойцы обнаруживают разрушенный монастырь, а в нем — группу глухих сирот с воспитательницей Евой.
Утратив веру, она нашла смысл жизни в спасении немощных и беззащитных детей. Лейтенант Егоров оказывается перед сложным выбором — выполняя приказ командования, он будет вынужден поставить под угрозу жизнь маленьких поляков. Артиллеристы изо всех сил стараются не допустить смерти детей…

Качество: DVD-9
Видео: MPEG-2, 720x576, 25 кадров/сек, ~ 6975 Кбит/с
Аудио: AAC, 6 каналов, 48 кГц, 448 кбит/сек
Продолжительность: 01:44:55
Перевод: Не требуется

Сценарий написан по повести писателя-фронтовика Александра Николаева «Мы все, не считая детей». В основу произведения легли события, происходившие с писателем во время Великой Отечественной войны, и главный герой, молодой лейтенант-артиллерист – прообраз самого Николаева.
В съемках боев принимало участие до 80 реконструкторов в день.
За две недели в Калужской области через реку Нару был выстроен мост в натуральную величину, выдерживающий нагрузку до 3,5 тонн. Так же для съемок была построена линия укреплений (окопы, блиндаж).
Создатели сделали ставку на максимальную достоверность: глухих сирот играют действительно глухие дети, немцев — немцы, а польский монастырь снимали в Польше, под Вроцлавом, в старинном замке.
Фильм снят к 70-летию Победы при поддержке Министерства культуры РФ.
Съемки длились 38 дней и проходили в России и Польше.
В роли «монастыря» выступил старинный замок Гроджец в Польше.
Для картины было привлечено большое количество военной техники. В том числе:
немецкий танк Т-IV и два советских танка Т-34-85;
автомобили «Студебеккер», ЗИС-5 «полуторка», «Виллис», Опель-блитц;
два артиллерийских орудия ЗИС-3;
советское и немецкое стрелковое оружие: 15 автоматов ППШ, 2 автомата ППС, 4 карабина Мосина, 2 пулемета Дегтярева и 2 пистолета ТТ, 20 автоматов МР-38 и МР-40 и пулемет МГ-42.
На съемках фильма работал военный консультант, подполковник Константин Горбатиков. Под его руководством все актеры прошли краткий курс артиллериста, изучили штатные должности при оружии, научились заряжать и передвигать орудия.

D:ТОРРЕНТЫEdini4ka.2015.O.DVD9VIDEO_TSVTS_04_2.VOB
  General
    Complete name : D:ТОРРЕНТЫEdini4ka.2015.O.DVD9VIDEO_TSVTS_04_2.VOB
    Format : MPEG-PS
    File size : 1 024 MiB
    Duration : 18mn 53s
    Overall bit rate mode : Variable
    Overall bit rate : 7 574 Kbps
  Video #224
    ID : 224 (0xE0)
    Format : MPEG Video
    Format version : Version 2
    Format profile : Main@Main
    Format settings, BVOP : Yes
    Format settings, Matrix : Default
    Format settings, GOP : M=3, N=12
    Duration : 18mn 53s
    Bit rate mode : Variable
    Bit rate : 6 975 Kbps
    Maximum bit rate : 9 000 Kbps
    Width : 720 pixels
    Height : 576 pixels
    Display aspect ratio : 16:9
    Frame rate : 25.000 fps
    Standard : PAL
    Color space : YUV
    Chroma subsampling : 4:2:0
    Bit depth : 8 bits
    Scan type : Progressive
    Compression mode : Lossy
    Bits/(Pixel*Frame) : 0.673
    Stream size : 943 MiB (92%)
  Audio #189-128
    ID : 189 (0xBD)-128 (0x80)
    Format : AC-3
    Format/Info : Audio Coding 3
    Mode extension : CM (complete main)
    Muxing mode : DVD-Video
    Duration : 18mn 53s
    Bit rate mode : Constant
    Bit rate : 448 Kbps
    Channel(s) : 6 channels
    Channel positions : Front: L C R, Side: L R, LFE
    Sampling rate : 48.0 KHz
    Bit depth : 16 bits
    Compression mode : Lossy
    Delay relative to video : -736ms
    Stream size : 60.6 MiB (6%)
  Menu













реклама партнёра


Вернуться к началу
 Профиль  
 
   Похожие торренты   Автор   Торрент   Размер 
В этой теме нет новых непрочитанных сообщений. Единичка (Кирилл Белевич) [военный, драма, 2015] DVD5 [Лицензия]

Dracon

345 | 13

4.21 ГБ

В этой теме нет новых непрочитанных сообщений. Единичка (Кирилл Белевич) [военный, драма, 2015] DVDRip [Лицензия]

Dracon

251 | 5

2.05 ГБ

В этой теме нет новых непрочитанных сообщений. Единичка (Кирилл Белевич) [военный, драма, 2015] DVDRip [Лицензия]

Dracon

2 | 0

1.46 ГБ

В этой теме нет новых непрочитанных сообщений. Единичка (Кирилл Белевич) [военный, драма, 2015] WEB-DL 720p [iTunes]

Dracon

1 | 0

3.22 ГБ

В этой теме нет новых непрочитанных сообщений. Единичка (Кирилл Белевич) [военный, драма, 2015] WEB-DL 1080p [iTunes]

Dracon

1674 | 41

3.56 ГБ

В этой теме нет новых непрочитанных сообщений. Единичка (Кирилл Белевич) [2015, Военный, драма , WEB-DLRip-AVC 1080p ]

Враг Нароода

6 | 0

5.05 ГБ

В этой теме нет новых непрочитанных сообщений. Битва за Севастополь (Сергей Мокрицкий) [Военный, ВОВ, драма, реальные события, 2015] DVD9 [лицензия]

Dracon

18 | 2

6.8 ГБ


Начать новую тему Ответить на тему  [ 1 сообщение ] 




Для Мосгорсуда, Роскомнадзора и рекламодателей:: mosgorsud-torrent[собачка]yandex.ru