Торрент файл
скачать торрент магнет ссылка Добавлен: 08 фев 2015, 10:58
Размер: 4.31 ГБ
Сидеров: 5
Личеров: 3
Автор

СообщениеДобавлено: 08 фев 2015, 10:58 

Не в сети
Зам. Админа
Аватара пользователя
Дата регистрации:
02 дек 2010, 12:39
Спасибо: 12623 / 214
Сообщения: 28012
Год выхода: 2014
Жанр: Драма
Режиссер: Андрей Звягинцев
В ролях: Алексей Серебряков, Елена Лядова, Владимир Вдовиченков, Роман Мадянов, Анна Уколова, Алексей Розин, Сергей Походаев, Валерий Гришко, Сергей Бачурский, Платон Каменев

О фильме: Главный герой, Николай, живёт в маленьком городке близ Баренцева моря, в хижине на берегу небольшой бухты, куда порой заплывают киты. Когда продажный мэр города пытается конфисковать почти всё имущество Николая — дом, автомастерскую и его собственные земли — главный герой прибегает к помощи старого друга по армии, ныне уважаемого адвоката, Дмитрия, который определяет единственный способ борьбы с политиком — найти на него убойный компромат

Качество: DVD5
Видео: MPEG2 Video, PAL, 1024x576 (720x576)(16:9), 25.00fps, VBR
Аудио1: AC3, 48000Hz, 6ch, 448Kbps [Русский]
Аудио2: AC3, 48000Hz, 2ch, 192Kbps [французский]
Продолжительность: 02:15:48
Перевод: Не требуется
Общее
Полное имя                               : D:prislanoeLeviathan.2014.DVD5VIDEO_TSVTS_01_4.VOB
Формат                                   : MPEG-PS
Размер файла                             : 1024 Мбайт
Продолжительность                        : 32 м.
Режим общего битрейта                    : Переменный
Общий поток                              : 4411 Кбит/сек

Видео
Идентификатор                            : 224 (0xE0)
Формат                                   : MPEG Video
Версия формата                           : Version 2
Профиль формата                          : Main@Main
Параметр BVOP формата                    : Да
Параметр матрицы формата                 : Выборочная
Параметр GOP формата                     : Variable
Продолжительность                        : 32 м.
Вид битрейта                             : Переменный
Битрейт                                  : 3683 Кбит/сек
Максимальный битрейт                     : 9800 Кбит/сек
Ширина                                   : 720 пикселей
Высота                                   : 576 пикселей
Соотношение сторон                       : 16:9
Частота кадров                           : 25,000 кадров/сек
Стандарт вещания                         : PAL
Цветовое пространство                    : YUV
Субдискретизация насыщенности            : 4:2:0
Битовая глубина                          : 8 бит
Тип развёртки                            : Чересстрочная
Порядок развёртки                        : Верхнее поле первое
Метод сжатия                             : С потерями
Бит/(Пиксели*Кадры)                      : 0.355
Временной код первого кадра              : 01:34:43:13
Оригинал временного кода                 : Group of pictures header
Размер потока                            : 855 Мбайт (83%)

Аудио #1
Идентификатор                            : 189 (0xBD)-128 (0x80)
Формат                                   : AC-3
Формат/Информация                        : Audio Coding 3
Расширение режима                        : CM (complete main)
Параметр Endianness формата              : Big
Режим смешивания                         : DVD-Video
Продолжительность                        : 32 м.
Вид битрейта                             : Постоянный
Битрейт                                  : 448 Кбит/сек
Каналы                                   : 6 каналов
Расположение каналов                     : Front: L C R, Side: L R, LFE
Частота                                  : 48,0 КГц
Битовая глубина                          : 16 бит
Метод сжатия                             : С потерями
Задержка видео                           : -528 мс.
Размер потока                            : 104 Мбайт (10%)

Аудио #2
Идентификатор                            : 189 (0xBD)-129 (0x81)
Формат                                   : AC-3
Формат/Информация                        : Audio Coding 3
Расширение режима                        : CM (complete main)
Параметр Endianness формата              : Big
Режим смешивания                         : DVD-Video
Продолжительность                        : 32 м.
Вид битрейта                             : Постоянный
Битрейт                                  : 192 Кбит/сек
Каналы                                   : 2 канала
Расположение каналов                     : Front: L R
Частота                                  : 48,0 КГц
Битовая глубина                          : 16 бит
Метод сжатия                             : С потерями
Задержка видео                           : -496 мс.
Размер потока                            : 44,6 Мбайт (4%)








реклама партнёра


Вернуться к началу
 Профиль  
 
   Похожие торренты   Автор   Торрент   Размер 
В этой теме нет новых непрочитанных сообщений. Левиафан (Андрей Звягинцев) [Драма, 2014] Blu-Ray

Dracon

1 | 6

40.59 ГБ

В этой теме нет новых непрочитанных сообщений. Левиафан (Андрей Звягинцев) [Драма, 2014] DVDRip

Dracon

7 | 5

2.04 ГБ

В этой теме нет новых непрочитанных сообщений. Левиафан (Андрей Звягинцев) [Драма, 2014] HDRip

Dracon

3 | 5

2.05 ГБ

В этой теме нет новых непрочитанных сообщений. Левиафан (Андрей Звягинцев) [Драма, 2014] HDRip

Dracon

10 | 5

2.74 ГБ

В этой теме нет новых непрочитанных сообщений. Левиафан (Андрей Звягинцев) [Драма, 2014] HDRip

Dracon

38 | 4

1.37 ГБ

В этой теме нет новых непрочитанных сообщений. Левиафан (Андрей Звягинцев) [Драма, 2014] BDRip 1080p

Dracon

60 | 6

13 ГБ

В этой теме нет новых непрочитанных сообщений. Левиафан (Андрей Звягинцев) [Драма, 2014] WEB-DLRip [iTunes]

Dracon

140 | 3

1.36 ГБ


Начать новую тему Ответить на тему  [ 1 сообщение ] 




Для Мосгорсуда, Роскомнадзора и рекламодателей:: mosgorsud-torrent[собачка]yandex.ru