Торрент файл
скачать торрент магнет ссылка Добавлен: 16 дек 2014, 11:29
Размер: 4.36 ГБ
Сидеров: 46
Личеров: 4
Статус: (Dracon)
Автор

СообщениеДобавлено: 16 дек 2014, 11:29 

Не в сети
Зам. Админа
Аватара пользователя
Дата регистрации:
02 дек 2010, 12:39
Спасибо: 12461 / 214
Сообщения: 27968
Год выхода: 2014
Жанр: комедия
Режиссер: Жора Крыжовников
В ролях: Ян Цапник, Юлия Александрова, Егор Корешков. Елена Валюшкина, Василий Кортуков, Юлия Стадник, Сергей Лавыгин, Александр Робак, Александр Паль, Сергей Светлаков

О фильме:
В надежде сорвать большой куш Наташин отчим идет на финансовую авантюру, чем подставляет своих партнеров по бизнесу. Без лишних слов те устраивают на него покушение. Вся семья скорбит по Борису Ивановичу… а он в гробу все это видел. Ему бы три дня пролежать и похороны пережить, а там родные откопают и можно спать спокойно. И все идет по плану уцелевшего отчима, пока проститься с ним не приезжает боевой товарищ. Рубаха-парень Витька Каравай мгновенно покоряет всю семью, перетягивая общее внимание на себя. Задетый за живое, покойник заставляет родных устроить роскошные поминки с участием Светлакова…


Страна: Россия
Студия: Базелевс Продакшн, Кинокомпания «Lunapark», Таббак
Продолжительность: 96 мин. / 01:36
Перевод: не требуется

Кодек: MPEG2
Качество: DVD5 (сжатый)
Видео: PAL 16:9 (720x576@1024x576) VBR 6001 Kbps, 25.000 fps
Звук: Dolby AC3, 6 ch, 48.0 KHz, 448 Kbps
Субтитры: английские

Сжатие видео - 0%!
Удалены: предупреждения, рекламные ролики фильмов, меню не модифицировалось
General
Complete name : E:Gorko 2014VIDEO_TSVTS_04_1.VOB
Format : MPEG-PS
File size : 1 024 MiB
Duration : 21mn 45s
Overall bit rate mode : Variable
Overall bit rate : 6 580 Kbps

Video
ID : 224 (0xE0)
Format : MPEG Video
Format version : Version 2
Format profile : Main@Main
Format settings, BVOP : Yes
Format settings, Matrix : Default
Format settings, GOP : M=3, N=12
Duration : 21mn 45s
Bit rate mode : Variable
Bit rate : 6 001 Kbps
Maximum bit rate : 8 000 Kbps
Width : 720 pixels
Height : 576 pixels
Display aspect ratio : 16:9
Frame rate : 25.000 fps
Standard : PAL
Color space : YUV
Chroma subsampling : 4:2:0
Bit depth : 8 bits
Scan type : Progressive
Compression mode : Lossy
Bits/(Pixel*Frame) : 0.579
Time code of first frame : 00:00:00:00
Time code source : Group of pictures header
Stream size : 934 MiB (91%)

Audio
ID : 189 (0xBD)-128 (0x80)
Format : AC-3
Format/Info : Audio Coding 3
Mode extension : CM (complete main)
Format settings, Endianness : Big
Muxing mode : DVD-Video
Duration : 21mn 45s
Bit rate mode : Constant
Bit rate : 448 Kbps
Channel(s) : 6 channels
Channel positions : Front: L C R, Side: L R, LFE
Sampling rate : 48.0 KHz
Bit depth : 16 bits
Compression mode : Lossy
Stream size : 69.7 MiB (7%)

Text
ID : 189 (0xBD)-32 (0x20)
Format : RLE
Format/Info : Run-length encoding
Muxing mode : DVD-Video

Menu





реклама партнёра


Вернуться к началу
 Профиль  
 
   Похожие торренты   Автор   Торрент   Размер 
В этой теме нет новых непрочитанных сообщений. Подарок с характером [семейный, приключения, комедия, 2014] DVD5 [Сжатый]

Dracon

73 | 8

4.11 ГБ

В этой теме нет новых непрочитанных сообщений. Горько! 2 [Комедия, приключения, 2014] HDRip

Dracon

168 | 6

1.46 ГБ

В этой теме нет новых непрочитанных сообщений. Горько 2 [Комедия, приключения, 2014] WEB-DLRip

Dracon

22 | 4

1.37 ГБ

В этой теме нет новых непрочитанных сообщений. Горько 2 [Комедия, приключения, 2014] WEB-DL 1080p

Dracon

614 | 10

2.82 ГБ

В этой теме нет новых непрочитанных сообщений. Горько 2 [Комедия, приключения, 2014] WebRip

Dracon

114 | 4

1.37 ГБ

В этой теме нет новых непрочитанных сообщений. Горько! 2 [Комедия, приключения, 2014] Blu-Ray 1080p

Dracon

36 | 9

13.24 ГБ

В этой теме нет новых непрочитанных сообщений. Операция «Мёртвый снег» 2 / Død Snø 2 [Ужасы, боевик, комедия, 2014] DVD5, Mvo [Сжатый]

salma3

16 | 4

4.29 ГБ


Начать новую тему Ответить на тему  [ 1 сообщение ] 




Для Мосгорсуда, Роскомнадзора и рекламодателей:: mosgorsud-torrent[собачка]yandex.ru