Торрент файл
скачать торрент магнет ссылка Добавлен: 14 дек 2014, 12:34
Размер: 4.09 ГБ
Сидеров: 153
Личеров: 15
Статус: (Dracon)
Автор

СообщениеДобавлено: 14 дек 2014, 12:34 

Не в сети
Зам. Админа
Аватара пользователя
Дата регистрации:
02 дек 2010, 12:39
Спасибо: 12461 / 214
Сообщения: 27968
Год выхода: 2014
Жанр: детский, мелодрама, семейный
Режиссер: Андрей Силкин
В ролях: Светлана Ходченкова, Дмитрий Ендальцев, Дима Полунин, Елена Яковлева, Виктор Сухоруков, Галина Польских, Олеся Жураковская, Софья Мицкевич, Арсений Мурзин, Матвей Михалевич

О фильме:
События в картине разворачиваются в хронологическом порядке с первого родительского собраниядо последнего учебного дня первоклассника, освещая самые яркие дни мальчика, его мамы и папы.

Семья Васи — главного героя картины — понимает, как беззаботно им раньше жилось и сколько проблем и тревог приносит школьная пора. За год перед Васей как будто в миниатюре разворачивается целая жизнь. Дружба, первая любовь, муки творчества, предательство, жизнь в коллективе, упорная работа, преодоление «препятствий» — вот что, буквально, как снежный ком, сваливается на голову маленького мальчика. Кто поддержит? Кто объяснит? Кто подскажет? Только единение семьи и школы может помочь ребенку правильно расставить акценты и справиться с трудностями, что в свою очередь вызывает у него гордость за родителей и учителей. Он начинает чувствовать себя увереннее, адаптируясь ко взрослой жизни. Время проходит незаметно. Находясь в лирическом настроении, родители замечают: «Надо же, уже первый класс закончился…



Страна: Россия
Студия: Вертикаль
Продолжительность: 75 мин. / 01:15
Перевод: не требуется

Кодек: MPEG2
Качество: DVD5
Видео: PAL 16:9 (720x576@1024x576) VBR 6705 Kbps, 25.000 fps
Звук: Dolby AC3, 6 ch, 48.0 KHz, 448 Kbps
Субтитры: отсутствуют

General
Complete name : D:Dnevnik.Mamu.Pervoklasnira.2014.DVD5VIDEO_TSVTS_02_1.VOB
Format : MPEG-PS
File size : 1 024 MiB
Duration : 19mn 36s
Overall bit rate mode : Variable
Overall bit rate : 7 298 Kbps

Video
ID : 224 (0xE0)
Format : MPEG Video
Format version : Version 2
Format profile : Main@Main
Format settings, BVOP : Yes
Format settings, Matrix : Custom
Format settings, GOP : M=3, N=12
Format settings, picture struc : Frame
Duration : 19mn 36s
Bit rate mode : Variable
Bit rate : 6 705 Kbps
Maximum bit rate : 9 000 Kbps
Width : 720 pixels
Height : 576 pixels
Display aspect ratio : 16:9
Frame rate : 25.000 fps
Standard : PAL
Color space : YUV
Chroma subsampling : 4:2:0
Bit depth : 8 bits
Scan type : Interlaced
Scan order : Top Field First
Compression mode : Lossy
Bits/(Pixel*Frame) : 0.647
Time code of first frame : 00:00:00:00
Time code source : Group of pictures header
Stream size : 941 MiB (92%)
Color primaries : BT.601 PAL
Transfer characteristics : BT.470 System B, BT.470 System G
Matrix coefficients : BT.601

Audio
ID : 189 (0xBD)-128 (0x80)
Format : AC-3
Format/Info : Audio Coding 3
Mode extension : CM (complete main)
Format settings, Endianness : Big
Muxing mode : DVD-Video
Duration : 19mn 36s
Bit rate mode : Constant
Bit rate : 448 Kbps
Channel(s) : 6 channels
Channel positions : Front: L C R, Side: L R, LFE
Sampling rate : 48.0 KHz
Bit depth : 16 bits
Compression mode : Lossy
Stream size : 62.8 MiB (6%)

Menu




реклама партнёра


Вернуться к началу
 Профиль  
 
   Похожие торренты   Автор   Торрент   Размер 
В этой теме нет новых непрочитанных сообщений. Дневник мамы первоклассника [детский, мелодрама, семейный, 2014] WEBRip

Dracon

583 | 17

1.37 ГБ

В этой теме нет новых непрочитанных сообщений. Чебурашка / Cheburashka [Мультфильм, детский, семейный, 2014] DVD5 [Лицензия]

Dracon

361 | 21

3.88 ГБ

В этой теме нет новых непрочитанных сообщений. Олли и сокровища пиратов / Dive Olly Dive and the Pirate Treasure [мультфильм, семейный, детский, 2014] DVD5, Dub [лицензия]

Dracon

48 | 31

3.27 ГБ

В этой теме нет новых непрочитанных сообщений. Подарок на Рождество / Jingle All The Way [Детский, комедия, семейный, 1996] DVD5, Mvo [Лицензия]

salma3

21 | 7

4.24 ГБ

В этой теме нет новых непрочитанных сообщений. Малефисента / Maleficent [фэнтези, мелодрама, приключения, семейный, 2014] DVD5, Dub+Sub [лицензия]

Dracon

126 | 18

4.37 ГБ

В этой теме нет новых непрочитанных сообщений. Мамы 3 (Георгий Малков, Эмиль Никогосян) [Комедия, Семейный, 2014] DVB

Dracon

1493 | 170

3.15 ГБ

В этой теме нет новых непрочитанных сообщений. Мамы 3 (Георгий Малков, Эмиль Никогосян ) [Комедия, Семейный, 2014] Blu-ray RUS 1080p

Dracon

5 | 6

16.84 ГБ


Начать новую тему Ответить на тему  [ 1 сообщение ] 




Для Мосгорсуда, Роскомнадзора и рекламодателей:: mosgorsud-torrent[собачка]yandex.ru