Торрент файл
скачать торрент магнет ссылка Добавлен: 08 дек 2014, 11:23
Размер: 4.02 ГБ
Сидеров: 231
Личеров: 18
Статус: (Dracon)
Автор

СообщениеДобавлено: 08 дек 2014, 11:23 

Не в сети
Зам. Админа
Аватара пользователя
Дата регистрации:
02 дек 2010, 12:39
Спасибо: 12623 / 214
Сообщения: 28012
Год выхода: 2014
Жанр: приключения, мелодрама
Режиссер: Константин Буслов
В ролях: Константин Хабенский, Светлана Ходченкова, Денис Шведов

О фильме:
Катя и Андрей, успешный молодой банкир, прилетают на Мальту на отдых. В дайвинг-центре они случайно встречают Макса — профессионального дайвера, тайком занимающегося черной археологией, и, по совместительству, бывшего возлюбленного Кати.
Во время одного из погружений Катя находит фрагмент спасательного жилета с номером немецкой подлодки времен Второй мировой. Девушка выясняет, что в 1942 году у мальтийского ордена рыцарей-госпитальеров была похищена коллекция уникальных древнеегипетских реликвий, которая должна была быть доставлена в Германию именно на подлодке. Однако ценный груз туда в итоге не прибыл.
Рассудив, что подводная лодка с сокровищами, скорее всего, лежит на дне у берегов Мальты, троица начинает ее поиски, ввязываясь в череду опасных авантюр, в том числе и подводных. А отношения между искателями приключений все больше напоминают любовный треугольник…


Страна: Россия
Студия: Нон-стоп Продакшн
Продолжительность: 01:31:16
Перевод: Оригинал [Лицензия]

Кодек: MPEG2
Качество: DVD5 R5
Видео: PAL 16:9 (720x576(0.571)) MPEG Video, 25,000 кадр/сек, 5917 Кбит/сек
Звук: Russian (Dolby AC3, 2 ch) 192 Кбит/сек, 48,0 КГц
Субтитры: нет
Title: Avantjuristy.2014.DVD5
Size: 4.02 Gb ( 4 215 840,00 KBytes ) - DVD-5
Enabled regions: 1, 2, 3, 4, 5, 6, 7, 8

VTS_01 :
Play Length: 00:00:16+01:31:00
Video: PAL 16:9 (720x576) VBR, Auto Letterboxed
Audio:
Russian (Dolby AC3, 2 ch)

* Menus Information *

VIDEO_TS Menu
Video:
NTSC 4:3 (720x480) VBR
Auto Pan&Scan, Auto Letterboxed
Russian Language Unit :
Title Menu

VTS_01 Menu
Video:
PAL 16:9 (720x576) VBR
Auto Letterboxed
Audio:
Not specified (Dolby AC3, 2 ch)
Russian Language Unit :
Root Menu
Chapter (PTT) Menu
Общее
Полное имя : F:Новинки 2014Avantjuristy.2014.DVD5VIDEO_TSVTS_01_1.VOB
Формат : MPEG-PS
Размер файла : 1024 Мбайт
Продолжительность : 22 м.
Режим общего битрейта : Переменный
Общий поток : 6233 Кбит/сек

Видео
Идентификатор : 224 (0xE0)
Формат : MPEG Video
Версия формата : Version 2
Профиль формата : Main@Main
Параметр BVOP формата : Да
Параметр матрицы формата : Выборочная
Параметр GOP формата : Variable
Продолжительность : 22 м.
Вид битрейта : Переменный
Битрейт : 5917 Кбит/сек
Максимальный битрейт : 8000 Кбит/сек
Ширина : 720 пикселей
Высота : 576 пикселей
Соотношение сторон : 16:9
Частота кадров : 25,000 кадров/сек
Стандарт вещания : PAL
Цветовое пространство : YUV
Субдискретизация насыщенности : 4:2:0
Битовая глубина : 8 бит
Метод сжатия : С потерями
Бит/(Пиксели*Кадры) : 0.571
Размер потока : 972 Мбайт (95%)

Аудио
Идентификатор : 189 (0xBD)-128 (0x80)
Формат : AC-3
Формат/Информация : Audio Coding 3
Расширение режима : CM (complete main)
Параметр Endianness формата : Big
Режим смешивания : DVD-Video
Продолжительность : 22 м.
Вид битрейта : Постоянный
Битрейт : 192 Кбит/сек
Каналы : 2 канала
Расположение каналов : Front: L R
Частота : 48,0 КГц
Битовая глубина : 16 бит
Метод сжатия : С потерями
Задержка видео : -50 мс.
Размер потока : 31,5 Мбайт (3%)






реклама партнёра


Вернуться к началу
 Профиль  
 
   Похожие торренты   Автор   Торрент   Размер 
В этой теме нет новых непрочитанных сообщений. Неудержимые 3 / The Expendables 3 [Боевик, приключения, 2014] DVD5, Dub [Лицензия]

Dracon

0 | 8

4.35 ГБ

В этой теме нет новых непрочитанных сообщений. День дурака [комедия, приключения, 2014] DVD5 [Лицензия]

Dracon

326 | 19

4.32 ГБ

В этой теме нет новых непрочитанных сообщений. Геракл / Hercules [боевик, приключения, 2014] DVD5, Dub+Sub [лицензия]

Dracon

41 | 5

4.37 ГБ

В этой теме нет новых непрочитанных сообщений. Авантюристы / The Adventurers [боевик, драма, криминал, приключения, 2017] WEBDLRip, Mvo

salma3

807 | 86

1.46 ГБ

В этой теме нет новых непрочитанных сообщений. Форт Росс: В поисках приключений [Приключения, 2014] DVD5 [Лицензия]

Dracon

161 | 10

4.24 ГБ

В этой теме нет новых непрочитанных сообщений. Приключения Паддингтона / Paddington (Пол Кинг) [комедия, семейный, 2014] DVD5, Dub [лицензия]

Dracon

58 | 6

4.37 ГБ

В этой теме нет новых непрочитанных сообщений. Навстречу шторму / Into the Storm [фантастика, боевик, приключения, 2014] DVD5, Dub+Sub [Лицензия]

Dracon

51 | 10

4.37 ГБ


Начать новую тему Ответить на тему  [ 1 сообщение ] 




Для Мосгорсуда, Роскомнадзора и рекламодателей:: mosgorsud-torrent[собачка]yandex.ru