Торрент файл
скачать торрент магнет ссылка Добавлен: 16 ноя 2014, 11:44
Размер: 4 ГБ
Сидеров: 698
Личеров: 82
Статус: (Dracon)
Автор

СообщениеДобавлено: 16 ноя 2014, 11:44 

Не в сети
Зам. Админа
Аватара пользователя
Дата регистрации:
02 дек 2010, 12:39
Спасибо: 12623 / 214
Сообщения: 28012
Год выхода: 2014
Жанр: Комедия, фантастика
Режиссёр: Георгий Малков
В ролях: Александр Ревва, Павел Деревянко, Татьяна Космачева, Артем Сучков, Максим Коновалов, Эмиль Никогосян, Вадим Цаллати, Мария Сёмкина, Александр Булатов, Раиса Рязанова

О фильме: Они настолько разные, что не должны были пересечься в обычной жизни. Фил — бывшая звезда 90-х, прославившийся в свое время одной единственной песней. Теперь он работает ди-джеем, завидует Олегу Газманову и не выносит ответственности. Петр — врач-карьерист, сухарь и педант. Записывает на диктофон свои планы на день, боится пригласить девушку на свидание и знать не знает кто такой Газманов. После электрошока они начинают испытывать чувства друг друга. Когда одному больно, то от боли вздрагивает и другой, когда одному из них страшно, то пугается и второй. Смеется один, непроизвольный смех у другого. Веселая жизнь и острые эмоции Фила рушат сначала системную размеренную работу Пети, а затем появляется проблема посерьезнее, когда вслед за Петей в его девушку влюбляется и Фил.


Выпущено: Россия, Enjoy Movies
Продолжительность: 01:25:03
Перевод: Не требуется



Формат: DVD-Video
Качество: DVD-5
Видео: MPEG2, PAL 16:9 (720x576(0.608)) MPEG Video, 25,000 кадр/сек, 6306 Кбит/сек
Аудио: Русский, Dolby AC3, 48000 Гц, 448 Кбит/с, 6 каналов (5.1)

Title: Smeshannye.chuvstva.2014.DVD5
Size: 4.00 Gb ( 4 193 270,00 KBytes ) - DVD-5
Enabled regions: 1, 2, 3, 4, 5, 6, 7, 8
VTS_01 :
Play Length: 00:00:19
Video: PAL 16:9 (720x576) VBR, Auto Pan&Scan, Auto Letterboxed
Audio:
Not specified (Dolby AC3, 2 ch)
VTS_02 :
Play Length: 01:25:03
Video: PAL 16:9 (720x576) VBR, Auto Pan&Scan, Auto Letterboxed
Audio:
Not specified (Dolby AC3, 6 ch)
* Menus Information *
VIDEO_TS Menu
Video:
PAL 16:9 (720x576) VBR
Auto Pan&Scan, Auto Letterboxed
English Language Unit :
Title Menu
VTS_01 Menu
Video:
PAL 16:9 (720x576) VBR
Auto Pan&Scan, Auto Letterboxed
Audio:
Not specified (Dolby AC3, 6 ch)
English Language Unit :
Root Menu
VTS_02 Menu
Video:
PAL 4:3 (720x576) VBR
English Language Unit :
Root Menu
Общее
Полное имя : VTS_02_1.VOB
Формат : MPEG-PS
Размер файла : 1024 Мбайт
Продолжительность : 20 м.
Режим общего битрейта : Переменный
Общий поток : 6892 Кбит/сек
Видео
Идентификатор : 224 (0xE0)
Формат : MPEG Video
Версия формата : Version 2
Профиль формата : Main@Main
Параметр BVOP формата : Да
Параметр матрицы формата : Выборочная
Параметр GOP формата : Variable
Format_Settings_PictureStructure : Frame
Продолжительность : 20 м.
Вид битрейта : Переменный
Битрейт : 6306 Кбит/сек
Максимальный битрейт : 9000 Кбит/сек
Ширина : 720 пикселей
Высота : 576 пикселей
Соотношение сторон : 16:9
Частота кадров : 25,000 кадров/сек
Стандарт вещания : PAL
Цветовое пространство : YUV
Субдискретизация насыщенности : 4:2:0
Битовая глубина : 8 бит
Тип развёртки : Чересстрочная
Порядок развёртки : Верхнее поле первое
Метод сжатия : С потерями
Бит/(Пиксели*Кадры) : 0.608
Временной код первого кадра : 00:00:00:00
Оригинал временного кода : Group of pictures header
Размер потока : 937 Мбайт (92%)
Аудио
Идентификатор : 189 (0xBD)-128 (0x80)
Формат : AC-3
Формат/Информация : Audio Coding 3
Расширение режима : CM (complete main)
Параметр Endianness формата : Big
Режим смешивания : DVD-Video
Продолжительность : 20 м.
Вид битрейта : Постоянный
Битрейт : 448 Кбит/сек
Каналы : 6 каналов
Расположение каналов : Front: L C R, Side: L R, LFE
Частота : 48,0 КГц
Битовая глубина : 16 бит
Метод сжатия : С потерями
Размер потока : 66,6 Мбайт (6%)









реклама партнёра


Вернуться к началу
 Профиль  
 
   Похожие торренты   Автор   Торрент   Размер 
В этой теме нет новых непрочитанных сообщений. Тэмми / Tammy [Комедия, 2014] DVD5, Mvo+Sub [Лицензия]

Dracon

20 | 3

4.35 ГБ

В этой теме нет новых непрочитанных сообщений. День дурака [комедия, приключения, 2014] DVD5 [Лицензия]

Dracon

326 | 19

4.32 ГБ

В этой теме нет новых непрочитанных сообщений. Приключения Паддингтона / Paddington (Пол Кинг) [комедия, семейный, 2014] DVD5, Dub [лицензия]

Dracon

58 | 6

4.37 ГБ

В этой теме нет новых непрочитанных сообщений. Босиком по городу / Barefoot [драма, мелодрама, комедия, 2014] DVD5, Mvo [Лицензия]

Dracon

3 | 3

4.03 ГБ

В этой теме нет новых непрочитанных сообщений. Унижение / The Humbling (Барри Левинсон) [Драма, Комедия, 2014] DVD5, Mvo [Лицензия]

Dracon

31 | 13

4.37 ГБ

В этой теме нет новых непрочитанных сообщений. Тайна четырех принцесс (Олег Штром) [Комедия, Фэнтези, 2014] DVD5 [Лицензия]

Dracon

7 | 3

4.35 ГБ

В этой теме нет новых непрочитанных сообщений. Медведи-соседи / Boonie Bears, to the Rescue! [мультфильм, комедия, приключения, 2014] DVD5, Dub [Лицензия]

Dracon

115 | 43

4.21 ГБ


Начать новую тему Ответить на тему  [ 1 сообщение ] 




Для Мосгорсуда, Роскомнадзора и рекламодателей:: mosgorsud-torrent[собачка]yandex.ru