Торрент файл
скачать торрент магнет ссылка Добавлен: 27 окт 2014, 15:40
Размер: 4.13 ГБ
Сидеров: 119
Личеров: 7
Статус: (Dracon)
Автор

СообщениеДобавлено: 27 окт 2014, 15:40 

Не в сети
Зам. Админа
Аватара пользователя
Дата регистрации:
02 дек 2010, 12:39
Спасибо: 12461 / 214
Сообщения: 27968
Год выхода: 2014
Жанр: комедия, приключения
Режиссер: Игорь Волошин
В ролях: Сергей Светлаков, Маргарита Левиева, Павел Деревянко, Майкл Мэдсен, Ингеборга Дапкунайте, Спартак Кондауров, Максим Голополосов, Иван Ургант, Виктор Проскурин, Ольга Симонова

О фильме:
Это история про парня, который душу готов продать, лишь бы набрать миллион просмотров для своего видео на YouTube. На пути к своей цели он оказывается в скором поезде «Москва — Владивосток», где сталкивается с американской актрисой, страдающей аэрофобией. В пути незнакомцев ожидают такие приключения, что они отстают от поезда, который пытаются догнать, продвигаясь по нашей непредсказуемой и сказочной России-матушке… Ведь каждому из них нужно оказаться во Владивостоке ровно через 7 дней — по причинам, которые они тщательно скрывают друг от друга.




Страна: Россия
Студия: Bulldozerfilms
Продолжительность: 01:24:33
Перевод: Оригинал [Лицензия]

Кодек: MPEG2
Качество: DVD5 R5
Видео: PAL 16:9 (720x576(0.641)) MPEG Video, 25,000 кадр/сек, 6641 Кбит/сек
Звук: Russian (Dolby AC3, 6 ch) 448 Кбит/сек, 48,0 КГц
Субтитры: украинские

Title: Skoryj.«Moskva-Rossija».2014.DVD5
Size: 4.13 Gb ( 4 326 326,00 KBytes ) - DVD-5
Enabled regions: 1, 2, 3, 4, 5, 6, 7, 8

VTS_01 :
Play Length: 00:00:19
Video: PAL 4:3 (720x576) VBR
Audio:
Not specified (Dolby AC3, 2 ch)

VTS_02 :
Play Length: 01:24:33
Video: PAL 16:9 (720x576) VBR, Auto Letterboxed
Audio:
Not specified (Dolby AC3, 6 ch)
Subtitles:
Ukrainian

* Menus Information *

VIDEO_TS Menu
Video:
NTSC 4:3 (720x480) VBR
Auto Pan&Scan, Auto Letterboxed
Russian Language Unit :
Title Menu

VTS_01 Menu
Video:
PAL 16:9 (720x576) VBR
Auto Letterboxed
Audio:
Not specified (Dolby AC3, 6 ch)
Russian Language Unit :
Root Menu

VTS_02 Menu
Video:
PAL 4:3 (720x576) VBR
Russian Language Unit :
Root Menu
Общее
Полное имя : F:Новинки 2014Skoryj.«Moskva-Rossija».2014.DVD5VIDEO_TSVTS_02_2.VOB
Формат : MPEG-PS
Размер файла : 1024 Мбайт
Продолжительность : 19 м.
Режим общего битрейта : Переменный
Общий поток : 7233 Кбит/сек

Видео
Идентификатор : 224 (0xE0)
Формат : MPEG Video
Версия формата : Version 2
Профиль формата : Main@Main
Параметр BVOP формата : Да
Параметр матрицы формата : Выборочная
Параметр GOP формата : Variable
Format_Settings_PictureStructure : Frame
Продолжительность : 19 м.
Вид битрейта : Переменный
Битрейт : 6641 Кбит/сек
Максимальный битрейт : 9000 Кбит/сек
Ширина : 720 пикселей
Высота : 576 пикселей
Соотношение сторон : 16:9
Частота кадров : 25,000 кадров/сек
Стандарт вещания : PAL
Цветовое пространство : YUV
Субдискретизация насыщенности : 4:2:0
Битовая глубина : 8 бит
Тип развёртки : Чересстрочная
Порядок развёртки : Верхнее поле первое
Метод сжатия : С потерями
Бит/(Пиксели*Кадры) : 0.641
Временной код первого кадра : 00:20:57:02
Оригинал временного кода : Group of pictures header
Размер потока : 940 Мбайт (92%)

Аудио
Идентификатор : 189 (0xBD)-128 (0x80)
Формат : AC-3
Формат/Информация : Audio Coding 3
Расширение режима : CM (complete main)
Параметр Endianness формата : Big
Режим смешивания : DVD-Video
Продолжительность : 19 м.
Вид битрейта : Постоянный
Битрейт : 448 Кбит/сек
Каналы : 6 каналов
Расположение каналов : Front: L C R, Side: L R, LFE
Частота : 48,0 КГц
Битовая глубина : 16 бит
Метод сжатия : С потерями
Задержка видео : -408 мс.
Размер потока : 63,4 Мбайт (6%)

Текст
Идентификатор : 189 (0xBD)-32 (0x20)
Формат : RLE
Формат/Информация : Run-length encoding
Режим смешивания : DVD-Video
Задержка видео : 320 мс.









реклама партнёра


Вернуться к началу
 Профиль  
 
   Похожие торренты   Автор   Торрент   Размер 
В этой теме нет новых непрочитанных сообщений. Скорый «Москва-Россия» [комедия, приключения, 2014] HDRip [Лицензия]

Dracon

616 | 10

1.37 ГБ

В этой теме нет новых непрочитанных сообщений. Скорый Москва-Россия [Комедия, 2014] BDRip 1080p [Лицензия]

Dracon

78 | 2

7.53 ГБ

В этой теме нет новых непрочитанных сообщений. Скорый Москва-Россия [Комедия, 2014] BDRip 720p [Лицензия]

Dracon

974 | 45

4.17 ГБ

В этой теме нет новых непрочитанных сообщений. Скорый «Москва-Россия» (Игорь Волошин) [2014, комедия, приключения] DVDRip | Лицензия

PriZraK

54 | 3

1.37 ГБ

В этой теме нет новых непрочитанных сообщений. Чемпионат России 2014-2015 / 1-й тур / ЦСКА (Москва) — Торпедо (Москва) [Футбол, 2014] HDRip

Dracon

1 | 3

1.72 ГБ

В этой теме нет новых непрочитанных сообщений. Весёлые ребята;) [Комедия, 2014] DVD5 [Лицензия]

Dracon

42 | 9

4.12 ГБ

В этой теме нет новых непрочитанных сообщений. А вот и она / And So It Goes [Драма, мелодрама, Комедия, 2014] DVD5, Dub [Лицензия]

Dracon

32 | 3

3.96 ГБ


Начать новую тему Ответить на тему  [ 1 сообщение ] 




Для Мосгорсуда, Роскомнадзора и рекламодателей:: mosgorsud-torrent[собачка]yandex.ru