Торрент файл
скачать торрент магнет ссылка Добавлен: 10 апр 2014, 10:54
Размер: 4.14 ГБ
Сидеров: 0
Личеров: 4
Автор

СообщениеДобавлено: 10 апр 2014, 10:54 

Не в сети
Зам. Админа
Аватара пользователя
Дата регистрации:
02 дек 2010, 12:39
Спасибо: 12461 / 214
Сообщения: 27968
Год выхода: 2014
Жанр: Приключения
Режиссер: Аршо Арутюнян
В ролях: Наталья Бардо, Дмитрий Клепацкий, Александр Носик, Александр Рапопорт, Наталья Громушкина, Арам Караханян, Дэвид Кацарава, Виген Степанян, Армен Петросян,   Ерванд Енгибарян

О фильме:
Однажды два друга-альпиниста, работающих горными спасателями, влюбленных в одну и ту же девушку, сопровождают туристов в горах Армении. В результате безответственности одного из друзей погибает турист! По решению суда он попадает в тюрьму. В обмен на свободу криминальный авторитет предлагает ему быть горным проводником в одном деле. Нужно достать припрятанный в горной пещере до лучших времен клад. Дороги друзей пересекаются! Их любимую берут в заложники. Им самим угрожает смерть, но отступать некуда… Дружба, обида, корысть, любовь, страх за жизнь — что в результате победит?

Качество: DVD-5
Видео: MPEG-2 Video, 720x576(16:9 PAL), 25 fps ~ 5580 Kbps (VBR)
Аудио: AC3, 48 KHz 2 ch ~ 192 Kb/s
Продолжительность: 01:28:00
Перевод: Не требуется
Общее
Полное имя : Q:TorFAlpinisty.2014.DVD5VIDEO_TSVTS_01_2.VOB
Формат : MPEG-PS
Размер файла : 1024 Мбайт
Продолжительность : 24 м.
Режим общего битрейта : Переменный
Общий поток : 5887 Кбит/сек

Видео
Идентификатор : 224 (0xE0)
Формат : MPEG Video
Версия формата : Version 2
Профиль формата : Main@Main
Параметр BVOP формата : Да
Параметр матрицы формата : Выборочная
Продолжительность : 24 м.
Вид битрейта : Переменный
Битрейт : 5578 Кбит/сек
Максимальный битрейт : 8500 Кбит/сек
Ширина : 720 пикселей
Высота : 576 пикселей
Соотношение сторон : 16:9
Частота кадров : 25,000 кадров/сек
Стандарт вещания : PAL
Цветовое пространство : YUV
Субдискретизация насыщенности : 4:2:0
Битовая глубина : 8 бит
Тип развёртки : Прогрессивная
Метод сжатия : С потерями
Бит/(Пиксели*Кадры) : 0.538
Размер потока : 970 Мбайт (95%)

Аудио
Идентификатор : 189 (0xBD)-128 (0x80)
Формат : AC-3
Формат/Информация : Audio Coding 3
Расширение режима : CM (complete main)
Режим смешивания : DVD-Video
Продолжительность : 24 м.
Вид битрейта : Постоянный
Битрейт : 192 Кбит/сек
Каналы : 2 канала
Расположение каналов : Front: L R
Частота : 48,0 КГц
Битовая глубина : 16 бит
Метод сжатия : С потерями
Задержка видео : -96 мс.
Размер потока : 33,4 Мбайт (3%)

Меню












реклама партнёра


Вернуться к началу
 Профиль  
 
   Похожие торренты   Автор   Торрент   Размер 
В этой теме нет новых непрочитанных сообщений. Альпинисты [Приключения, 2014] DVDRip [Лицензия]

Dracon

1008 | 24

1.37 ГБ

В этой теме нет новых непрочитанных сообщений. Авантюристы [приключения, 2014] DVD5 [Лицензия]

Dracon

231 | 18

4.02 ГБ

В этой теме нет новых непрочитанных сообщений. Геракл / Hercules [боевик, приключения, 2014] DVD5, Dub+Sub [лицензия]

Dracon

41 | 5

4.37 ГБ

В этой теме нет новых непрочитанных сообщений. Неудержимые 3 / The Expendables 3 [Боевик, приключения, 2014] DVD5, Dub [Лицензия]

Dracon

0 | 8

4.35 ГБ

В этой теме нет новых непрочитанных сообщений. День дурака [комедия, приключения, 2014] DVD5 [Лицензия]

Dracon

326 | 19

4.32 ГБ

В этой теме нет новых непрочитанных сообщений. Форт Росс: В поисках приключений [Приключения, 2014] DVD5 [Лицензия]

Dracon

161 | 10

4.24 ГБ

В этой теме нет новых непрочитанных сообщений. Малефисента / Maleficent [фэнтези, мелодрама, приключения, семейный, 2014] DVD5, Dub+Sub [лицензия]

Dracon

126 | 18

4.37 ГБ


Начать новую тему Ответить на тему  [ 1 сообщение ] 




Для Мосгорсуда, Роскомнадзора и рекламодателей:: mosgorsud-torrent[собачка]yandex.ru