Торрент файл
скачать торрент магнет ссылка Добавлен: 15 фев 2014, 15:14
Размер: 4.36 ГБ
Сидеров: 6
Личеров: 2
Автор

СообщениеДобавлено: 15 фев 2014, 15:14 

Не в сети
Зам. Админа
Аватара пользователя
Дата регистрации:
02 дек 2010, 12:39
Спасибо: 12461 / 214
Сообщения: 27968
Год выпуска: 2014
Производство: Россия / Enjoy Movies, Renovatio ent.
Жанр: Спорт, драма
Перевод: Не требуется (Русский язык)
Субтитры: Отсутствуют

Режиссер: Алексей Вакулов, Артем Аксененко, Дмитрий Дюжев
Актеры: Андрей Смоляков, Марк Богатырев, Андрей Федорцов, Михаил Горевой, Дмитрий Губерниев, Таисия Вилкова, Александр Молочников, Максим Виторган, Светлана Ходченкова, Ольга Тумайкина, Алексей Чадов, Игорь Верник, Константин Крюков, Татьяна Арнтгольц, Екатерина Климова, Виктор Гусев

Описание фильма:
Пять реальных историй больших побед российских спортсменов. И за каждой победой стоят человеческие истории, в которых переплетаются любовь, предательство, дружба, уважение, труд и вера. Вера в себя, вера в победу.






Дата мировой премьеры: 23 января 2014
Дата российской премьеры: 23 января 2014, «Каропрокат»
Дата выхода DVD/Blu-Ray релиза: 18 февраля 2014, «Lizard Cinema Trade»


Продолжительность: 01:34:07
Качество видео: DVD5
Видео: MPEG-2, 720x576@1024x576 (PAL 16:9), ~5856 Кбит/сек
Аудио: AC3 5.1, 448 Кбит/сек [Русский]
Title: Локальный диск
Size: 4.36 Gb ( 4 571 506 KBytes ) - DVD-5
Enabled regions: 1, 2, 3, 4, 5, 6, 7, 8

VTS_01 :
Play Length:
Video: PAL 4:3 (720x576) VBR
Audio:
Russian (Dolby AC3, 6 ch)
English (Dolby AC3, 6 ch)
English (Dolby AC3, 6 ch)

VTS_02 :
Play Length: 01:34:07
Video: PAL 16:9 (720x576) VBR, Auto Pan&Scan, Auto Letterboxed
Audio:
Russian (Dolby AC3, 6 ch)

Menu Video:
NTSC 4:3 (720x480) VBR
Auto Pan&Scan, Auto Letterboxed
Menu English Language Unit :
Root Menu
Chapter (PTT) Menu
Audio Menu
Общее
Полное имя : D:ВидеоЧемпионы (2014) DVD5VIDEO_TSVTS_02_2.VOB
Формат : MPEG-PS
Размер файла : 1024 Мбайт
Продолжительность : 22 м.
Режим общего битрейта : Переменный
Общий поток : 6432 Кбит/сек

Видео
Идентификатор : 224 (0xE0)
Формат : MPEG Video
Версия формата : Version 2
Профиль формата : Main@Main
Параметр BVOP формата : Да
Параметр матрицы формата : Выборочная
Параметр GOP формата : Variable
Продолжительность : 22 м.
Вид битрейта : Переменный
Битрейт : 5856 Кбит/сек
Максимальный битрейт : 8500 Кбит/сек
Ширина : 720 пикселей
Высота : 576 пикселей
Соотношение сторон : 16:9
Частота кадров : 25,000 кадров/сек
Стандарт вещания : PAL
Цветовое пространство : YUV
Субдискретизация насыщенности : 4:2:0
Битовая глубина : 8 бит
Тип развёртки : Прогрессивная
Метод сжатия : С потерями
Бит/(Пиксели*Кадры) : 0.565
Временной код первого кадра : 01:22:26:15
Оригинал временного кода : Group of pictures header
Размер потока : 932 Мбайт (91%)

Аудио
Идентификатор : 189 (0xBD)-128 (0x80)
Формат : AC-3
Формат/Информация : Audio Coding 3
Расширение режима : CM (complete main)
Параметр Endianness формата : Big
Режим смешивания : DVD-Video
Продолжительность : 22 м.
Вид битрейта : Постоянный
Битрейт : 448 Кбит/сек
Каналы : 6 каналов
Расположение каналов : Front: L C R, Side: L R, LFE
Частота : 48,0 КГц
Битовая глубина : 16 бит
Метод сжатия : С потерями
Задержка видео : -264 мс.
Размер потока : 71,3 Мбайт (7%)

Меню

Видео не сжималось!
Удалены: реклама, предупреждения и заставки, аудиодорожка DTS.
Меню: частично анимированное, недействующие кнопки затерты и закрыты.
Обработка: DVD ReMake Pro + Работа с меню (Adobe PhotoShop и MuxMan).







реклама партнёра


Вернуться к началу
 Профиль  
 
   Похожие торренты   Автор   Торрент   Размер 
В этой теме нет новых непрочитанных сообщений. Чемпионы [Драма, спорт, 2014] HDRip [Лицензия]

Dracon

276 | 5

1.46 ГБ

В этой теме нет новых непрочитанных сообщений. Чемпионы [Драма, спорт, 2014] DVDRip-AVC [Лицензия]

Dracon

18 | 2

1.45 ГБ

В этой теме нет новых непрочитанных сообщений. Чемпионы [Драма, спорт, 2014] DVDRip [Лицензия]

Dracon

2324 | 68

1.37 ГБ

В этой теме нет новых непрочитанных сообщений. Чемпионы [Драма, спорт, 2014] Blu-ray 1080p [лицензия]

Dracon

13 | 5

21.81 ГБ

В этой теме нет новых непрочитанных сообщений. Чемпионы [Драма, спорт, 2014] DVD9 [Лицензия]

Dracon

32 | 2

5.04 ГБ

В этой теме нет новых непрочитанных сообщений. Чемпионы [Драма, спорт, 2014] BDRip 720p [лицензия]

Dracon

33 | 2

4.16 ГБ

В этой теме нет новых непрочитанных сообщений. Чемпионы [Драма, спорт, 2014] WEB-DLRip

Dracon

208 | 3

1.36 ГБ


Начать новую тему Ответить на тему  [ 1 сообщение ] 




Для Мосгорсуда, Роскомнадзора и рекламодателей:: mosgorsud-torrent[собачка]yandex.ru