Торрент файл
скачать торрент магнет ссылка Добавлен: 24 май 2013, 13:12
Размер: 6.13 ГБ
Сидеров: 1
Личеров: 3
Автор

СообщениеДобавлено: 24 май 2013, 13:12 

В сети
Супермодератор
Аватара пользователя
Дата регистрации:
15 фев 2012, 16:44
Возраст: 27
Спасибо: 5121 / 2089
Сообщения: 17304

Исключение из правил

Год выхода: 2012
Жанр: мелодрама
Режиссер: Ирина Волкова
В ролях: Варвара Андреева, Максим Литовченко, Сергей Колтаков, Михаил Евланов, Кирилл Жандаров, Анна Каменкова, Александр Барган, Татьяна Колганова, Ирина Основина

О фильме:
Марина приходит спустя много лет на встречу с одноклассниками, которые обсуждают последние изменения в жизни друг друга. У Марины за эти годы ничего не изменилось — в разводе, живет с мамой, работает в школе. Взглянув на себя глазами одноклассников, Марина уезжает из Петербурга в Москву, чтобы радикально изменить свою жизнь…





Релиз группы:

Файл
Качество: DVD9 R5
Формат: DVD-Video
Видео кодек: MPEG2
Аудио кодек[/color]: AC3
Видео: PAL 16:9 (720x576(0.868)) MPEG Video, 25,000 кадр/сек, 9000 Кбит/сек
Аудио: Russian (Dolby AC3, 2 ch) 192 Кбит/сек, 48,0 КГц



Title: Iskljuchenie.iz.pravil.2012.DVD9
Size: 6.13 Gb ( 6 430 146,00 KBytes ) - DVD-9
Enabled regions: 1, 2, 3, 4, 5, 6, 7, 8

VTS_01 :
Play Length: 00:47:44+00:46:07
Video: PAL 16:9 (720x576) VBR, Auto Letterboxed
Audio:
Russian (Dolby AC3, 2 ch)

* Menus Information *

VIDEO_TS Menu
Video:
PAL 16:9 (720x576) VBR
Auto Letterboxed
Audio:
Not specified (Dolby AC3, 2 ch)
Russian Language Unit :
Title Menu

VTS_01 Menu
Video:
PAL 16:9 (720x576) VBR
Auto Letterboxed
Russian Language Unit :
Root Menu

Общее
Полное имя : M:Новинки 2013Iskljuchenie.iz.pravil.2012.DVD9VIDEO_TSVTS_01_2.VOB
Формат : MPEG-PS
Размер файла : 1024 Мбайт
Продолжительность : 15 м.
Общий поток : 9341 Кбит/сек

Видео
Идентификатор : 224 (0xE0)
Формат : MPEG Video
Версия формата : Version 2
Профиль формата : Main@Main
Параметр BVOP формата : Да
Параметр матрицы формата : Выборочная
Параметр GOP формата : M=3, N=15
Продолжительность : 15 м.
Битрейт : 9000 Кбит/сек
Ширина : 720 пикселей
Высота : 576 пикселей
Соотношение сторон : 16:9
Частота кадров : 25,000 кадров/сек
Стандарт вещания : PAL
Цветовое пространство : YUV
Субдискретизация насыщенности : 4:2:0
Битовая глубина : 8 бит
Тип развёртки : Чересстрочная
Порядок развёртки : Верхнее поле первое
Метод сжатия : С потерями
Бит/(Пиксели*Кадры) : 0.868
TimeCode_FirstFrame : 10:15:20:06
TimeCode_Source : Group of pictures header
Размер потока : 982 Мбайт (96%)

Аудио
Идентификатор : 189 (0xBD)-128 (0x80)
Формат : AC-3
Формат/Информация : Audio Coding 3
Расширение режима : CM (complete main)
Параметр Endianness формата : Big
Режим смешивания : DVD-Video
Продолжительность : 15 м.
Вид битрейта : Постоянный
Битрейт : 192 Кбит/сек
Каналы : 2 канала
Расположение каналов : Front: L R
Частота : 48,0 КГц
Битовая глубина : 16 бит
Метод сжатия : С потерями
Задержка видео : -768 мс.
Размер потока : 21,0 Мбайт (2%)






реклама партнёра


Вернуться к началу
 Профиль Отправить личное сообщение  
 
   Похожие торренты   Автор   Торрент   Размер 
В этой теме нет новых непрочитанных сообщений. Одноклассники.ru: НаCLICKай удачу [мелодрама, комедия, 2013] DVD9 [Лицензия]

Dracon

11 | 4

5.27 ГБ

В этой теме нет новых непрочитанных сообщений. На грани сомнения / Suspension of Disbelief [триллер, 2012] DVD9, Mvo+Sub [лицензия]

salma3

32 | 11

5.43 ГБ

В этой теме нет новых непрочитанных сообщений. Резня зомби / Zombie Massacre [ужасы, фантастика, боевик, 2012] DVD9, Mvo+Sub [лицензия]

salma3

7 | 4

4.66 ГБ

В этой теме нет новых непрочитанных сообщений. Нарушение правил [01-04 из 04] (Леонид Мазор) [Мелодрама, 2015] WEB-DL 1080p

Dracon

81 | 9

5.22 ГБ

В этой теме нет новых непрочитанных сообщений. Нарушение правил [Серия 4 из 4] (Леонид Мазор) [Мелодрама, 2015] SATRip

Dracon

148 | 13

2.29 ГБ

В этой теме нет новых непрочитанных сообщений. Любовь вне правил / Leatherheads [драма, мелодрама, комедия, спорт, 2008] HDRip, Mvo

salma3

35 | 3

1.45 ГБ

В этой теме нет новых непрочитанных сообщений. 10 правил / 10 pravidel jak sbalit holku (Карел Янак) [мелодрама, комедия, 2014] HDRip, avo

Dracon

9 | 2

1.46 ГБ


Начать новую тему Ответить на тему  [ 1 сообщение ] 




Для Мосгорсуда, Роскомнадзора и рекламодателей:: mosgorsud-torrent[собачка]yandex.ru