Торрент файл
скачать торрент магнет ссылка Добавлен: 19 май 2013, 23:47
Размер: 4.35 ГБ
Сидеров: 21
Личеров: 4
Автор

СообщениеДобавлено: 19 май 2013, 23:47 

В сети
Супермодератор
Аватара пользователя
Дата регистрации:
15 фев 2012, 16:44
Возраст: 27
Спасибо: 5139 / 2089
Сообщения: 17415

Сомнамбула

Год выпуска: 2013
Жанр: Триллер, драма
Выпущено: Россия, LeRêve
Режиссер: Алексей Смирнов (III)
В ролях: Сергей Апрельский, Андрей Дементьев, Мария Ясная, Александр Златопольский, Марина Гапченко, Георгий Колтушкин, Сергей Ковалёв, Николай Михайлов, Вера Сибирёва, Мария Ясная

О фильме: Фильм основан на истории произошедшей в Интернате для детей сирот в Воронежской области, куда в 1993 году поступил 7-ми летний Андрей Яковлев. Внимание всего Интерната к мальчику приковали странные события, которые происходили с ним почти каждую ночь. Утром на теле мальчика появлялись ссадины, и царапины. Охрана патрулировала по корпусу каждый час, ночные дежурные не сводили с мальчика глаз — но так ничего и не выяснили. 3 августа 1993 года в спальнях интерната установили камеры видеонаблюдения. То, что запечатлели камеры шокировало сотрудников Интерната и привлекло внимание спецслужб. С виду обычный ребенок, обладающий множеством талантов и перспектив на будущее, поневоле создал огромный ажиотаж вокруг себя, а некоторые факты из его биографии были засекречены. В основу фильма легли секретные файлы, кадры камер видеонаблюдения датированные 1993 годом, а также свидетельства очевидцев



Меню: на русском языке, статичное, озвученное

Тип релиза: DVD5 (Сжатый)
Контейнер: DVD-Video
Видео: PAL 16:9 (720x576) VBR Auto Letterboxed; 25,000 fps; 7520 kbps
Аудио: Russian (Dolby AC3, 6 ch, 448 Кбит/сек, 48,0 КГц)

Семпл

Общее
Полное имя : F:Somnambula.2012.DVD5VIDEO_TSVTS_13_2.VOB
Формат : MPEG-PS
Размер файла : 1024 Мбайт
Продолжительность : 17 м.
Общий поток : 8130 Кбит/сек

Видео
Идентификатор : 224 (0xE0)
Формат : MPEG Video
Версия формата : Version 2
Профиль формата : Main@Main
Параметр BVOP формата : Да
Параметр матрицы формата : По умолчанию
Параметры GOP формата : M=3, N=12
Продолжительность : 17 м.
Вид битрейта : Переменный
Битрейт : 7520 Кбит/сек
Номинальный битрейт : 9000 Кбит/сек
Ширина : 720 пикс.
Высота : 576 пикс.
Соотношение сторон : 16:9
Частота кадров : 25,000 кадр/сек
Стандарт вещания : PAL
Цветовое пространство : YUV
Подвыборка цветности : 4:2:0
Битовая глубина : 8 бит
Тип развёртки : Прогрессивная
Порядок развёртки : Нижнее поле первое
Метод сжатия : С потерями
Бит/(Пиксели*Кадры) : 0.725
Размер потока : 947 Мбайт (92%)

Аудио
Идентификатор : 189 (0xBD)-128 (0x80)
Формат : AC-3
Формат/Информация : Audio Coding 3
Расширение режима : CM (complete main)
Режим смешивания : DVD-Video
Продолжительность : 17 м.
Вид битрейта : Постоянный
Битрейт : 448 Кбит/сек
Каналы : 6 каналов
Расположение каналов : Front: L C R, Side: L R, LFE
Частота : 48,0 КГц
Битовая глубина : 16 бит
Метод сжатия : С потерями
Задержка видео : -528 мс.
Размер потока : 56,4 Мбайт (6%)

Меню




реклама партнёра


Вернуться к началу
 Профиль Отправить личное сообщение  
 
   Похожие торренты   Автор   Торрент   Размер 
В этой теме нет новых непрочитанных сообщений. Двойник / The Double [триллер, драма, 2013] DVD5, Mvo [Сжатый]

Dracon

34 | 4

4.34 ГБ

В этой теме нет новых непрочитанных сообщений. Годзилла / Godzilla [Фантастика, боевик, триллер, 2014] DVD5, Dub+Sub [Сжатый]

salma3

29 | 12

4.37 ГБ

В этой теме нет новых непрочитанных сообщений. План побега / Escape Plan [боевик, триллер, детектив, 2013] DVD5, Dub [Сжатый]

Dracon

33 | 12

4.37 ГБ

В этой теме нет новых непрочитанных сообщений. Отец-молодец / Delivery Man [комедия, драма, 2013] DVD5, Dub+Sub [сжатый]

Dracon

23 | 2

4.37 ГБ

В этой теме нет новых непрочитанных сообщений. Уцелевший / Lone Survivor [военный, боевик, драма, 2013] DVD5, Dub [сжатый]

Dracon

10 | 2

4.37 ГБ

В этой теме нет новых непрочитанных сообщений. Любовь сквозь время / Winter's Tale [Фэнтези, драма, мелодрама, детектив, 2014] DVD5, Dub+Sub [Сжатый]

Dracon

46 | 6

4.37 ГБ

В этой теме нет новых непрочитанных сообщений. Волк с Уолл-стрит / The Wolf of Wall Street [драма, комедия, криминал, биография, 2013] DVD5, Dub+Sub [сжатый]

Dracon

38 | 6

4.36 ГБ


Начать новую тему Ответить на тему  [ 1 сообщение ] 




Для Мосгорсуда, Роскомнадзора и рекламодателей:: mosgorsud-torrent[собачка]yandex.ru