Торрент файл
скачать торрент магнет ссылка Добавлен: 21 мар 2013, 09:37
Размер: 4.37 ГБ
Сидеров: 13
Личеров: 3
Автор

СообщениеДобавлено: 21 мар 2013, 09:37 

Не в сети
Зам. Админа
Аватара пользователя
Дата регистрации:
02 дек 2010, 12:39
Спасибо: 12461 / 214
Сообщения: 27968
Год выпуска: 2013
Страна: Россия
Слоган: «Секс на вылет»
Жанр: комедия
Продолжительность: 01:23:08
Перевод: Не требуется

Режиссер: Сарик Андреасян
Сценарий: Сарик Андреасян, Павел Воронин, Ярослав Лукашевич, Тигран Бакумян
Продюсер: Георгий Малков, Сарик Андреасян, Гевонд Андреасян, Владимир Поляков, Даниил Махорт
Оператор: Антон Зенкович
Композитор: Дарин Сысоев, Гарик Папоян
В ролях: Таир Мамедов, Константин Крюков, Роман Юнусов, Гавриил Гордеев, Равшана Куркова, Анна Хилькевич, Кристина Асмус, Наталия Медведева, Екатерина Скулкина, Даша Астафьева, Андрей Федорцов, Михаил Крылов

Бюджет: $2 000 000
Сборы в мире: $9 377 894

Описание: Неприступные женщины, полмиллиона долларов и четверо героев которым предстоит принять участие в игре «Секс-лото», организованное экстравагантным миллионером. Суть игры - за пять дней соблазнить как можно больше женщин на морском курорте. Получив задания, великолепная четверка бросается в бой.
Но все цели совсем не простые - бабушка, жена олигарха, девственница, феминистка, сектантка - и приз получит только лучший. Каждый применит свой фирменный арсенал, и все будут близки к тому, чтобы получить заветный куш, записав новых жертв в список своих мужских побед. Но неожиданно в «дело секса» вмешается любовь.



Релиз:

Качество: DVD5 (сжатый)
Формат: DVD Video
Видео: MPEG2; PAL 16:9 (720x576)
Аудио: Dolby AC3, 6 ch, 448 Kbps Russian
Субтитры: нет


Дополнительная информация :
Исходник : DVD9 (6.22 Гб) [лицензия, PAL 16:9]
Убрано : анонсы, предупреждение
Сжатие фильма : 10.1 % сжатия (без учета ручного перераспределения битрейта, за счет большего сжатия конечных титров)

DVDRemakePro
Photoshop
MuxMan
Rebuilder и CCE (Cinema Craft Encoder), 5 проходов
Работоспособность проверена на софтовом плеере Windows Media и бытовом LG
Title: Chto.tvoryat.muzhchiny_2013_DVD5.[R.G.Daredevil]
Size: 4.37 Gb ( 4 580 280,00 KBytes ) - DVD-5
Enabled regions: 1, 2, 3, 4, 5, 6, 7, 8

VTS_01 :
Play Length: 00:00:00
Video: PAL 16:9 (720x576) VBR, Auto Letterboxed

VTS_02 :
Play Length: 00:00:07
Video: PAL 16:9 (720x576) VBR, Auto Letterboxed
Audio:
Not specified (MPEG1, 2 ch)

VTS_03 :
Play Length: 00:00:00
Video: PAL 16:9 (720x576) VBR, Auto Letterboxed
Audio:
Russian (Dolby AC3, 2 ch)

VTS_04 :
Play Length: 00:00:00
Video: PAL 16:9 (720x576) VBR, Auto Letterboxed
Audio:
Russian (Dolby AC3, 2 ch)

VTS_05 :
Play Length: 00:00:00
Video: PAL 16:9 (720x576) VBR, Auto Letterboxed
Audio:
Russian (Dolby AC3, 2 ch)

VTS_06 :
Play Length: 00:00:00
Video: PAL 16:9 (720x576) VBR, Auto Letterboxed
Audio:
Russian (Dolby AC3, 2 ch)

VTS_07 :
Play Length: 00:00:00
Video: PAL 16:9 (720x576) VBR, Auto Letterboxed
Audio:
Russian (Dolby AC3, 2 ch)

VTS_08 :
Play Length: 00:00:00
Video: PAL 16:9 (720x576) VBR, Auto Letterboxed
Audio:
Russian (Dolby AC3, 2 ch)

VTS_09 :
Play Length: 00:00:00
Video: PAL 16:9 (720x576) VBR, Auto Letterboxed
Audio:
Russian (Dolby AC3, 2 ch)

VTS_10 :
Play Length: 00:00:00
Video: PAL 16:9 (720x576) VBR, Auto Letterboxed
Audio:
Russian (Dolby AC3, 2 ch)

VTS_11 :
Play Length: 00:00:00
Video: PAL 16:9 (720x576) VBR, Auto Letterboxed
Audio:
Russian (Dolby AC3, 2 ch)

VTS_12 :
Play Length: 00:00:00
Video: PAL 16:9 (720x576) VBR, Auto Letterboxed
Audio:
Russian (Dolby AC3, 2 ch)

VTS_13 :
Play Length: 00:00:00
Video: PAL 16:9 (720x576) VBR, Auto Letterboxed
Audio:
Russian (Dolby AC3, 2 ch)

VTS_14 :
Play Length: 00:00:00
Video: PAL 16:9 (720x576) VBR, Auto Letterboxed
Audio:
Russian (Dolby AC3, 2 ch)
Russian (Dolby AC3, 2 ch)

VTS_15 :
Play Length: 00:00:00
Video: PAL 16:9 (720x576) VBR, Auto Letterboxed
Audio:
Russian (Dolby AC3, 2 ch)

VTS_16 :
Play Length: 00:00:00
Video: PAL 16:9 (720x576) VBR, Auto Letterboxed
Audio:
Russian (Dolby AC3, 2 ch)
Russian (Dolby AC3, 2 ch)

VTS_17 :
Play Length: 00:00:00
Video: PAL 16:9 (720x576) VBR, Auto Letterboxed
Audio:
Russian (Dolby AC3, 2 ch)
Russian (Dolby AC3, 2 ch)

VTS_18 :
Play Length: 00:00:00
Video: PAL 16:9 (720x576) VBR, Auto Letterboxed
Audio:
Russian (Dolby AC3, 2 ch)

VTS_19 :
Play Length: 01:23:08
Video: PAL 16:9 (720x576) VBR, Auto Pan&Scan, Auto Letterboxed
Audio:
Russian (Dolby AC3, 6 ch)
Формат: MPEG-PS
Размер файла: 1024 Мбайт
Продолжительность: 18 м.
Режим общего битрейта: Переменный
Общий поток: 7711 Кбит/сек

Видео
Идентификатор: 224 (0xE0)
Формат: MPEG Video
Версия формата: Version 2
Профиль формата: Main@Main
Параметр BVOP формата: Да
Параметр матрицы формата: Выборочная
Продолжительность: 18 м.
Вид битрейта: Переменный
Битрейт: 7109 Кбит/сек
Максимальный битрейт: 9000 Кбит/сек
Ширина: 720 пикселей
Высота: 576 пикселей
Соотношение сторон: 16:9
Частота кадров: 25,000 кадров/сек
Стандарт вещания: PAL
Цветовое пространство: YUV
Субдискретизация насыщенности: 4:2:0
Битовая глубина: 8 бит
Тип развёртки: Прогрессивная
Порядок развёртки: Нижнее поле первое
Метод сжатия: С потерями
Бит/(Пиксели*Кадры): 0.686
Размер потока: 944 Мбайт (92%)

Аудио
Идентификатор: 189 (0xBD)-128 (0x80)
Формат: AC-3
Формат/Информация: Audio Coding 3
Расширение режима: CM (complete main)
Режим смешивания: DVD-Video
Продолжительность: 18 м.
Вид битрейта: Постоянный
Битрейт: 448 Кбит/сек
Каналы: 6 каналов
Расположение каналов: Front: L C R, Side: L R, LFE
Частота: 48,0 КГц
Битовая глубина: 16 бит
Метод сжатия: С потерями
Размер потока: 59,5 Мбайт (6%)

Меню

















реклама партнёра


Вернуться к началу
 Профиль  
 
   Похожие торренты   Автор   Торрент   Размер 
В этой теме нет новых непрочитанных сообщений. Что творят мужчины! 2 [Комедия, 2015] DVDRip-AVC [Лицензия]

salma3

24 | 9

1.46 ГБ

В этой теме нет новых непрочитанных сообщений. Что творят мужчины! 2 (Сарик Андреасян) [2015, Комедия, DVDRip | Лицензия]

marya111

224 | 12

1.37 ГБ

В этой теме нет новых непрочитанных сообщений. Что творят мужчины! 2 (Сарик Андреасян) [Комедия, 2015] WEB-DL 1080p

Dracon

86 | 6

3.07 ГБ

В этой теме нет новых непрочитанных сообщений. Что творят мужчины! 2 (Сарик Андреасян) [Комедия, 2015] WEB-DL 720p

Dracon

11 | 4

2.63 ГБ

В этой теме нет новых непрочитанных сообщений. Что творят мужчины! 2 (Сарик Андреасян) [Комедия, 2015] Web-DLRip

Dracon

277 | 12

1.37 ГБ

В этой теме нет новых непрочитанных сообщений. Мужчины, женщины и дети / Men, Women & Children (Джейсон Рейтмен) [драма, комедия, 2014] DVD5, Dub+Sub [Лицензия]

Dracon

59 | 21

4.36 ГБ

В этой теме нет новых непрочитанных сообщений. Конец света 2013: Апокалипсис по-голливудски / This Is the End [комедия, фэнтези, 2013] DVD5, Dub+Sub [лицензия]

Dracon

21 | 2

4.37 ГБ


Начать новую тему Ответить на тему  [ 1 сообщение ] 




Для Мосгорсуда, Роскомнадзора и рекламодателей:: mosgorsud-torrent[собачка]yandex.ru