Торрент файл
скачать торрент магнет ссылка Добавлен: 23 янв 2013, 09:42
Размер: 4.34 ГБ
Сидеров: 1
Личеров: 2
Статус: (Dracon)
Автор

СообщениеДобавлено: 23 янв 2013, 09:42 

Не в сети
Зам. Админа
Аватара пользователя
Дата регистрации:
02 дек 2010, 12:39
Спасибо: 12461 / 214
Сообщения: 27968
Год выпуска: 2012
Страна: Россия
Жанр: драма
Продолжительность: 01:18:23
Перевод: Не требуется

Режиссер: Сергей Мокрицкий
Сценарий: Сергей Мокрицкий
Продюсер: Наталья Мокрицкая, Ульяна Савельева
Оператор: Иван Малютин
Композитор: Александр Маноцков
В ролях: Анатолий Кот, Светлана Немоляева, Ирина Рахманова, Людмила Титова, Андрей Бильжо

Описание: Один день из жизни типичного персонажа российской истории, «маленького человека» - учителя русского языка и литературы в школе. Интеллигент и его проблемы в начале XXI века. Один день из жизни страны, которая когда-то любила Есенина. О том, что у неё еще есть надежда...



Релиз:

Качество: DVD5 (сжатый)
Формат: DVD Video
Видео: MPEG2; PAL 16:9 (720x576)
Аудио: Dolby AC3, 6 ch, 448 Kbps Russian
Субтитры: английские


Дополнительная информация :
Исходник : DVD9 (5.24 Гб) [лицензия, PAL 16:9]
Убрано : часть анонсов
Сжатие фильма : нет

DVDRemakePro
Photoshop
MuxMan
Работоспособность проверена на софтовом плеере Windows Media и бытовом LG
Title: Den.uchitelya_2012_DVD5.[R.G.Daredevil]
Size: 4.34 Gb ( 4 550 590,00 KBytes ) - DVD-5
Enabled regions: 1, 2, 3, 4, 5, 6, 7, 8

VTS_01 :
Play Length: 00:00:15
Video: PAL 4:3 (720x576) VBR
Audio:
Russian (Dolby AC3, 2 ch)

VTS_02 :
Play Length: 00:00:08
Video: PAL 16:9 (720x576) VBR, Auto Letterboxed
Audio:
Russian (Dolby AC3, 2 ch)

VTS_03 :
Play Length: 00:02:10
Video: PAL 16:9 (720x576) VBR, Auto Letterboxed
Audio:
Russian (Dolby AC3, 2 ch)

VTS_04 :
Play Length: 00:02:18
Video: PAL 16:9 (720x576) VBR, Auto Letterboxed
Audio:
Russian (Dolby AC3, 2 ch)

VTS_05 :
Play Length: 00:02:00
Video: PAL 16:9 (720x576) VBR, Auto Letterboxed
Audio:
Russian (Dolby AC3, 2 ch)

VTS_06 :
Play Length: 00:02:20
Video: PAL 16:9 (720x576) VBR, Auto Letterboxed
Audio:
Russian (Dolby AC3, 2 ch)

VTS_07 :
Play Length: 00:00:00
Video: PAL 16:9 (720x576) VBR, Auto Letterboxed
Audio:
Russian (Dolby AC3, 2 ch)

VTS_08 :
Play Length: 00:00:00
Video: PAL 16:9 (720x576) VBR, Auto Letterboxed
Audio:
Russian (Dolby AC3, 2 ch)

VTS_09 :
Play Length: 00:00:00
Video: PAL 16:9 (720x576) VBR, Auto Letterboxed
Audio:
Russian (Dolby AC3, 2 ch)

VTS_10 :
Play Length: 00:00:00
Video: PAL 16:9 (720x576) VBR, Auto Letterboxed
Audio:
Russian (Dolby AC3, 2 ch)

VTS_11 :
Play Length: 00:00:00
Video: PAL 16:9 (720x576) VBR, Auto Letterboxed
Audio:
Not specified (Dolby AC3, 2 ch)

VTS_12 :
Play Length: 00:00:00
Video: PAL 16:9 (720x576) VBR, Auto Letterboxed
Audio:
Not specified (Dolby AC3, 2 ch)

VTS_13 :
Play Length: 00:00:00
Video: PAL 16:9 (720x576) VBR, Auto Letterboxed
Audio:
Russian (Dolby AC3, 2 ch)

VTS_14 :
Play Length: 00:00:00
Video: PAL 16:9 (720x576) VBR, Auto Letterboxed
Audio:
Russian (Dolby AC3, 2 ch)

VTS_15 :
Play Length: 00:00:00
Video: PAL 16:9 (720x576) VBR, Auto Letterboxed
Audio:
Russian (Dolby AC3, 2 ch)

VTS_16 :
Play Length: 00:00:00
Video: PAL 16:9 (720x576) VBR, Auto Letterboxed
Audio:
Russian (Dolby AC3, 2 ch)

VTS_17 :
Play Length: 00:00:01
Video: PAL 16:9 (720x576) VBR, Auto Letterboxed
Audio:
Russian (Dolby AC3, 2 ch)
Subtitles:
English

VTS_18 :
Play Length: 01:18:23
Video: PAL 16:9 (720x576) VBR, Auto Letterboxed
Audio:
Russian (Dolby AC3, 6 ch)
Subtitles:
English

VTS_19 :
Play Length: 00:00:05
Video: PAL 16:9 (720x576) VBR, Auto Letterboxed
Audio:
Not specified (Dolby AC3, 2 ch)
Формат : MPEG-PS
Размер файла : 1024 Мбайт
Продолжительность : 19 м.
Режим общего битрейта : Переменный
Общий поток : 7203 Кбит/сек

Видео
Идентификатор : 224 (0xE0)
Формат : MPEG Video
Версия формата : Version 2
Профиль формата : Main@Main
Параметр BVOP формата : Да
Параметр матрицы формата : По умолчанию
Параметр GOP формата : M=3, N=12
Продолжительность : 19 м.
Вид битрейта : Переменный
Битрейт : 6612 Кбит/сек
Максимальный битрейт : 7500 Кбит/сек
Ширина : 720 пикселей
Высота : 576 пикселей
Соотношение сторон : 16:9
Частота кадров : 25,000 кадров/сек
Стандарт вещания : PAL
Цветовое пространство : YUV
Субдискретизация насыщенности : 4:2:0
Битовая глубина : 8 бит
Тип развёртки : Прогрессивная
Метод сжатия : С потерями
Бит/(Пиксели*Кадры) : 0.638
Размер потока : 940 Мбайт (92%)

Аудио
Идентификатор : 189 (0xBD)-128 (0x80)
Формат : AC-3
Формат/Информация : Audio Coding 3
Расширение режима : CM (complete main)
Режим смешивания : DVD-Video
Продолжительность : 19 м.
Вид битрейта : Постоянный
Битрейт : 448 Кбит/сек
Каналы : 6 каналов
Расположение каналов : Front: L C R, Side: L R, LFE
Частота : 48,0 КГц
Битовая глубина : 16 бит
Метод сжатия : С потерями
Размер потока : 63,7 Мбайт (6%)

Меню



















реклама партнёра


Вернуться к началу
 Профиль  
 
   Похожие торренты   Автор   Торрент   Размер 
В этой теме нет новых непрочитанных сообщений. Эмпайр Стэйт / Empire State [криминал, драма, 2012] DVD5, Mvo [лицензия]

Dracon

13 | 7

4.22 ГБ

В этой теме нет новых непрочитанных сообщений. Бэйтаун вне закона / The Baytown Outlaws [триллер, драма, 2012] DVD5, Mvo [лицензия]

salma3

13 | 2

4.07 ГБ

В этой теме нет новых непрочитанных сообщений. Учителя / Teachers [драма, мелодрама, комедия, 1984] DVDRip, Dvo

salma3

16 | 2

1.46 ГБ

В этой теме нет новых непрочитанных сообщений. Четверг, 12-e [Комедия, мелодрама, 2012] DVD5 [Лицензия]

Dracon

114 | 22

3.54 ГБ

В этой теме нет новых непрочитанных сообщений. Клод в помощь / La strategie de la poussette [комедия, 2012] DVD5, Mvo [лицензия]

Dracon

3 | 3

4.02 ГБ

В этой теме нет новых непрочитанных сообщений. Летающие звери [S01] [мультфильм, короткометражка, детский, 2012] DVD5 [Лицензия]

Ανδρέας

7 | 5

2.85 ГБ

В этой теме нет новых непрочитанных сообщений. Охотники на демонов / Hellbenders [ужасы, триллер, комедия, 2012] DVD5, Dub [лицензия]

salma3

4 | 3

3.8 ГБ


Начать новую тему Ответить на тему  [ 1 сообщение ] 




Для Мосгорсуда, Роскомнадзора и рекламодателей:: mosgorsud-torrent[собачка]yandex.ru