Торрент файл
скачать торрент магнет ссылка Добавлен: 28 авг 2012, 20:15
Размер: 4.36 ГБ
Сидеров: 2
Личеров: 4
Статус: (nikk1988)
Автор

СообщениеДобавлено: 28 авг 2012, 20:15 

Не в сети
Супермодератор
Аватара пользователя
Дата регистрации:
14 июн 2010, 21:00
Возраст: 28
Спасибо: 1324 / 1
Сообщения: 5644
Откуда: НиНО
Название: Большая ржака!
Год выпуска: 2012
Страна: Россия
Слоган: «Это больше чем комедия! Это - «Большая Ржака»!»
Жанр: комедия
Продолжительность: 01:20:10
Перевод: Не требуется

Режиссер: Виталий Москаленко
Сценарий: Дмитрий Лемешев, Виталий Малый, Николай Ковбас, Алексей Нужный
Продюсер: Виталий Малый, Роман Арзуманов
Оператор: Дмитрий Мальцев
Композитор: Markscheider Kunst
В ролях: Сергей Писаренко, Евгений Никишин, Ирина Медведева, Сергей Дорогов, Александр Семчев, Александр Робак, Александра Флоринская, Анна Семенович, Михаил Владимиров, Виктор Добронравов, Владимир Зайцев, Алёна Яковлева

Описание: В провинциальном городке на местном ТВ прозябают два друга - Ширяев и Молоток, и их коллега - красавица Надя. Все трое мечтают разбогатеть и стать столичными звездами. Неожиданно им в голову приходит идея: устроить реалити-шоу, участники которого должны отыскать золото Колчака. Одержимые жадностью герои шоу пускаются в гонку за кладом на самолетах, поездах и автомобилях. В пути их ждут сумасшедшие приключения, и все они еще не знают главного секрета...



Релиз:

Качество: DVD5 (сжатый)
Формат: DVD Video
Видео: MPEG2; PAL 16:9 (720x576)
Аудио: Dolby AC3, 6 ch, 384 Kbps Russian
Субтитры: нет


Дополнительная информация :
Исходник : DVD9 (6.38 Гб) [лицензия, PAL 16:9]
Убрано : допы, реклама, заставки, предупреждения, Russian (Dolby AC3, 2 ch)
Сжатие фильма : 16.6 % сжатия (без учета ручного перераспределения битрейта, за счет большего сжатия конечных титров)

DVDRemakePro
Photoshop
MuxMan
Rebuilder и CCE (Cinema Craft Encoder), 5 проходов
Работоспособность проверена на софтовом плеере Windows Media и бытовом LG
Title: Bolshaya.rzhaka_2012_DVD5.[R.G.Daredevil]
Size: 4.36 Gb ( 4 567 358,00 KBytes ) - DVD-5
Enabled regions: 1, 2, 3, 4, 5, 6, 7, 8

VTS_01 :
Play Length: 00:00:01+01:20:10+00:00:01
Video: PAL 16:9 (720x576) VBR, Auto Letterboxed
Audio:
Russian (Dolby AC3, 6 ch)
Russian (Dolby AC3, 2 ch)

VTS_02 :
Play Length: 00:00:00+00:00:00+00:00:00
Video: PAL 16:9 (720x576) VBR, Auto Letterboxed
Audio:
Russian (Dolby AC3, 2 ch)

VTS_03 :
Play Length: 00:00:00+00:00:00+00:00:00
Video: PAL 16:9 (720x576) VBR, Auto Letterboxed
Audio:
Russian (Dolby AC3, 2 ch)

VTS_04 :
Play Length: 00:00:00+00:00:05+00:00:00
Video: PAL 16:9 (720x576) VBR, Auto Letterboxed
Audio:
Russian (Dolby AC3, 2 ch)
Формат : MPEG-PS
Размер файла : 1024 Мбайт
Продолжительность : 18 м.
Режим общего битрейта : Переменный
Общий поток : 7836 Кбит/сек

Видео
Идентификатор : 224 (0xE0)
Формат : MPEG Video
Версия формата : Version 2
Профиль формата : Main@Main
Параметр BVOP формата : Да
Параметр матрицы формата : Выборочная
Продолжительность : 18 м.
Вид битрейта : Переменный
Битрейт : 7296 Кбит/сек
Максимальный битрейт : 6000 Кбит/сек
Ширина : 720 пикселей
Высота : 576 пикселей
Соотношение сторон : 16:9
Частота кадров : 25,000 кадров/сек
Стандарт вещания : PAL
Цветовое пространство : YUV
Субдискретизация насыщенности : 4:2:0
Битовая глубина : 8 бит
Тип развёртки : Чересстрочная
Порядок развёртки : Нижнее поле первое
Метод сжатия : С потерями
Бит/(Пиксели*Кадры) : 0.704
Размер потока : 953 Мбайт (93%)

Аудио
Идентификатор : 189 (0xBD)-128 (0x80)
Формат : AC-3
Формат/Информация : Audio Coding 3
Расширение режима : CM (complete main)
Режим смешивания : DVD-Video
Продолжительность : 18 м.
Вид битрейта : Постоянный
Битрейт : 384 Кбит/сек
Каналы : 6 каналов
Расположение каналов : Front: L C R, Side: L R, LFE
Частота : 48,0 КГц
Битовая глубина : 16 бит
Метод сжатия : С потерями
Размер потока : 50,2 Мбайт (5%)

Меню
















реклама партнёра


Вернуться к началу
 Профиль Отправить личное сообщение  
 
   Похожие торренты   Автор   Торрент   Размер 
В этой теме нет новых непрочитанных сообщений. Горько! 2 [комедия, 2014] DVD5 [Сжатый]

Dracon

46 | 4

4.36 ГБ

В этой теме нет новых непрочитанных сообщений. Семейка Крудс / The Croods [Мультфильм, 2013] DVD5, Dub+Sub [Сжатый]

salma3

13 | 6

4.31 ГБ

В этой теме нет новых непрочитанных сообщений. Двойник / The Double [триллер, драма, 2013] DVD5, Mvo [Сжатый]

Dracon

34 | 4

4.34 ГБ

В этой теме нет новых непрочитанных сообщений. Подарок с характером [семейный, приключения, комедия, 2014] DVD5 [Сжатый]

Dracon

73 | 8

4.11 ГБ

В этой теме нет новых непрочитанных сообщений. Годзилла / Godzilla [Фантастика, боевик, триллер, 2014] DVD5, Dub+Sub [Сжатый]

salma3

29 | 12

4.37 ГБ

В этой теме нет новых непрочитанных сообщений. Большая афера / The Grand Seduction [комедия, 2013] DVD5, Mvo+Sub [Сжатый]

Dracon

59 | 4

4.37 ГБ

В этой теме нет новых непрочитанных сообщений. Отец-молодец / Delivery Man [комедия, драма, 2013] DVD5, Dub+Sub [сжатый]

Dracon

23 | 2

4.37 ГБ


Начать новую тему Ответить на тему  [ 1 сообщение ] 




Для Мосгорсуда, Роскомнадзора и рекламодателей:: mosgorsud-torrent[собачка]yandex.ru