Торрент файл
скачать торрент магнет ссылка Добавлен: 04 апр 2012, 09:17
Размер: 5.71 ГБ
Сидеров: 0
Личеров: 4
Статус: (Dracon)
Автор

СообщениеДобавлено: 04 апр 2012, 09:17 

Не в сети
Зам. Админа
Аватара пользователя
Дата регистрации:
02 дек 2010, 12:39
Спасибо: 12623 / 214
Сообщения: 28012

Год создания: 2011
Жанр:комедия
Режиссер:Игорь Коробейников
В ролях: Анна Дарк, Максим Дрозд, Владимир Скворцов, Андрей Александрин, Эвелина Блёданс, Николай Бурлак, Юлия Беретта, Сергей Зарубин, Юрий Лагута, Олег Леушин

О фильме: Лера Ласковая, преподаватель школы искусств, отстаивая интересы студентов и коллег, вступает в неравный бой с Артемом Рудаковым, олигархом, привыкшим все подчинять своей воле и желанию. Молодая женщина, несмотря на угрозы и безнадежность ситуации, верит в справедливость и настоящие чувства. Ей удается объединить вокруг себя единомышленников и дать отпор «сильным мира сего». Смешные и нелепые попытки Леры и её команды спасти Школу, непосредственность и наивность, вызывают у Артема Рудакова недоумение, а затем неподдельный интерес. Встретившись с Лерой, он понимает, что это та настоящая и единственная любовь, к которой он стремился всю жизнь, идя навстречу к ней шаг за шагом.



Выпущено: Россия / New Line Cinema
Продолжительность: 01:41:10
Озвучивание: Оригинал [лицензия]

Формат: DVD-Video
Качество: DVD9
Видео: PAL 16:9 (720x576(0.572)) MPEG Video, 25,000 кадр/сек, 5929 Кбит/сек
Аудио: Russian (Dolby AC3, 6 ch) 448 Кбит/сек, 48,0 КГц
Размер: 5.71 GB
Скачать: Сэмпл

Title:
Size: 5.71 Gb ( 5 989 414 KBytes ) - DVD-9
Enabled regions: 1, 2, 3, 4, 5, 6, 7, 8

VTS_01 :
Play Length: 00:00:10
Video: PAL 16:9 (720x576) VBR, Auto Letterboxed

VTS_02 :
Play Length: 00:00:22
Video: PAL 16:9 (720x576) VBR, Auto Letterboxed
Audio:
Not specified (Dolby AC3, 6 ch)

VTS_03 :
Play Length: 01:41:10
Video: PAL 16:9 (720x576) VBR, Auto Letterboxed
Audio:
Russian (Dolby AC3, 6 ch)
Subtitles:
English

VTS_04 :
Play Length: 00:18:06
Video: PAL 4:3 (720x576) VBR
Audio:
Russian (LinearPCM, 2 ch)

VTS_05 :
Play Length: 00:00:15
Video: PAL 4:3 (720x576) VBR
Audio:
Russian (Dolby AC3, 2 ch)

VTS_06 :
Play Length: 00:01:47
Video: PAL 16:9 (720x576) VBR, Auto Letterboxed
Audio:
Russian (Dolby AC3, 2 ch)

Menu Video:
PAL 16:9 (720x576) VBR
Auto Pan&Scan, Auto Letterboxed
Menu English Language Unit :
Root Menu
Общее
Полное имя : J:Новинки 2012Step.by.step.2011.DVD9VIDEO_TSVTS_03_1.VOB
Формат : MPEG-PS
Размер файла : 1024 Мбайт
Продолжительность : 22 м.
Режим общего битрейта : Переменный
Общий поток : 6506 Кбит/сек

Видео
Идентификатор : 224 (0xE0)
Формат : MPEG Video
Версия формата : Version 2
Профиль формата : Main@Main
Параметр BVOP формата : Да
Параметр матрицы формата : Выборочная
Продолжительность : 22 м.
Вид битрейта : Переменный
Битрейт : 5929 Кбит/сек
Максимальный битрейт : 6000 Кбит/сек
Ширина : 720 пикселей
Высота : 576 пикселей
Соотношение сторон : 16:9
Частота кадров : 25,000 кадров/сек
Стандарт вещания : PAL
Цветовое пространство : YUV
Субдискретизация насыщенности : 4:2:0
Битовая глубина : 8 бит
Тип развёртки : Чересстрочная
Порядок развёртки : Верхнее поле первое
Метод сжатия : С потерями
Бит/(Пиксели*Кадры) : 0.572
Размер потока : 933 Мбайт (91%)

Аудио
Идентификатор : 189 (0xBD)-128 (0x80)
Формат : AC-3
Формат/Информация : Audio Coding 3
Расширение режима : CM (complete main)
Режим смешивания : DVD-Video
Продолжительность : 21 м.
Вид битрейта : Постоянный
Битрейт : 448 Кбит/сек
Каналы : 6 каналов
Расположение каналов : Front: L C R, Side: L R, LFE
Частота : 48,0 КГц
Битовая глубина : 16 бит
Метод сжатия : С потерями
Задержка видео : 72 мс.
Размер потока : 70,5 Мбайт (7%)

Текст
Идентификатор : 189 (0xBD)-32 (0x20)
Формат : RLE
Формат/Информация : Run-length encoding
Режим смешивания : DVD-Video
Продолжительность : 21 м.
Задержка видео : 7 с. 320 мс.




реклама партнёра


Вернуться к началу
 Профиль  
 
   Похожие торренты   Автор   Торрент   Размер 
В этой теме нет новых непрочитанных сообщений. Электрошок / Shocker [ужасы, триллер, комедия, 1989] DVD9, Mvo+Sub

salma3

4 | 2

5.45 ГБ

В этой теме нет новых непрочитанных сообщений. Тотальная слежка / La totale! [комедия, приключения, 1991] DVD9, Mvo

salma3

8 | 2

6.07 ГБ

В этой теме нет новых непрочитанных сообщений. Плохие парни 2 / Bad Boys II [боевик, триллер, комедия, 2003] DVD9, Dub+Sub

salma3

23 | 8

5.66 ГБ

В этой теме нет новых непрочитанных сообщений. Отель Парадизо / Guest House Paradiso [черная комедия, 1999] DVD9, Mvo

salma3

5 | 1

6.02 ГБ

В этой теме нет новых непрочитанных сообщений. Закат американской империи / Le Declin de l'empire americain [драма, комедия, 1986] DVD9, Mvo

salma3

8 | 8

5.79 ГБ

В этой теме нет новых непрочитанных сообщений. В поисках Дори / Finding Dory (Мультфильм, комедия, приключения, семейный, 2016) DVD9 | Custom

marya111

29 | 18

6.39 ГБ

В этой теме нет новых непрочитанных сообщений. Муха 2 / The Fly II [ужасы, фантастика, 1989] DVD9, Mvo+Sub

salma3

3 | 2

4.66 ГБ


Начать новую тему Ответить на тему  [ 1 сообщение ] 




Для Мосгорсуда, Роскомнадзора и рекламодателей:: mosgorsud-torrent[собачка]yandex.ru