Торрент файл
скачать торрент магнет ссылка Добавлен: 07 мар 2012, 11:07
Размер: 3.72 ГБ
Сидеров: 3
Личеров: 5
Статус: (Dracon)
Автор

СообщениеДобавлено: 07 мар 2012, 11:07 

Не в сети
Зам. Админа
Аватара пользователя
Дата регистрации:
02 дек 2010, 12:39
Спасибо: 12461 / 214
Сообщения: 27968

Год выпуска: 2011
Жанр:Драма, мелодрама, комедия
Режиссер: Валерий Бебко, Олег Борщевский, Денис Гамзинов...
В ролях: Даша Астафьева, Ада Роговцева, Артем Семакин, Александр Яценко, Виталий Линецкий, Илья Исаев, Елена Фесуненко, Юлия Емельяненко, Николай Олейник, Григорий Калинин

О фильме: Альманах короткометражных фильмов о любви в современном мегаполисе, глазами молодых украинских режиссеров.



Выпущено: Украина, inQ
Продолжительность: 01:40:17
Озвучивание: Оригинальное [лицензия]

Формат: DVD-Video
Качество: DVD5
Видео: PAL 16:9 (720x576(0.441)) MPEG Video, 25,000 кадр/сек, 4575 Кбит/сек
Аудио:Russian (Dolby AC3, 6 ch) 384 Кбит/сек, 48,0 КГц
Размер: 3,72 GB
Скачать: Сэмпл
Title:
Size: 3.72 Gb ( 3 901 586 KBytes ) - DVD-5
Enabled regions: 1, 2, 3, 4, 5, 6, 7, 8

VTS_01 :
Play Length: 00:00:08
Video: PAL 4:3 (720x576) VBR

VTS_02 :
Play Length: 01:40:17
Video: PAL 16:9 (720x576) VBR, Auto Letterboxed
Audio:
Russian (Dolby AC3, 6 ch)

VTS_03 :
Play Length: 00:00:13
Video: PAL 16:9 (720x576) VBR, Auto Letterboxed

Menu Video:
PAL 4:3 (720x576) VBR
Auto Pan&Scan, Auto Letterboxed
Menu Russian Language Unit :
Root Menu
Chapter (PTT) Menu

Общее
Полное имя : G:Новинки 2012Vlublennie.2011.DVD9VIDEO_TSVTS_02_1.VOB
Формат : MPEG-PS
Размер файла : 1024 Мбайт
Продолжительность : 28 м.
Режим общего битрейта : Переменный
Общий поток : 5060 Кбит/сек

Видео
Идентификатор : 224 (0xE0)
Формат : MPEG Video
Версия формата : Version 2
Профиль формата : Main@Main
Параметр BVOP формата : Да
Параметр матрицы формата : Выборочная
Продолжительность : 28 м.
Вид битрейта : Переменный
Битрейт : 4575 Кбит/сек
Максимальный битрейт : 8000 Кбит/сек
Ширина : 720 пикселей
Высота : 576 пикселей
Соотношение сторон : 16:9
Частота кадров : 25,000 кадров/сек
Стандарт вещания : PAL
Цветовое пространство : YUV
Субдискретизация насыщенности : 4:2:0
Битовая глубина : 8 бит
Тип развёртки : Чересстрочная
Порядок развёртки : Верхнее поле первое
Метод сжатия : С потерями
Бит/(Пиксели*Кадры) : 0.441
Размер потока : 926 Мбайт (90%)

Аудио
Идентификатор : 189 (0xBD)-128 (0x80)
Формат : AC-3
Формат/Информация : Audio Coding 3
Расширение режима : CM (complete main)
Режим смешивания : DVD-Video
Продолжительность : 28 м.
Вид битрейта : Постоянный
Битрейт : 384 Кбит/сек
Каналы : 6 каналов
Расположение каналов : Front: L C R, Side: L R, LFE
Частота : 48,0 КГц
Битовая глубина : 16 бит
Метод сжатия : С потерями
Размер потока : 77,7 Мбайт (8%)


Релиз:




реклама партнёра


Вернуться к началу
 Профиль  
 
   Похожие торренты   Автор   Торрент   Размер 
В этой теме нет новых непрочитанных сообщений. Влюбленные / Amanti [драма, мелодрама, 1968] DVDRip, Mvo

salma3

16 | 3

1.37 ГБ

В этой теме нет новых непрочитанных сообщений. Влюбленные / Falling in Love [драма, мелодрама, 1984] WEB-DL 720p, Mvo+Dvo+Sub

salma3

42 | 2

3.53 ГБ

В этой теме нет новых непрочитанных сообщений. Влюбленные / Falling in Love [драма, мелодрама, 1984] DVDRip, Mvo

salma3

75 | 9

1.46 ГБ

В этой теме нет новых непрочитанных сообщений. Влюбленные / Mohabbatein [мюзикл, драма, мелодрама, 2000] HDRip, Mvo

salma3

21 | 5

2.27 ГБ

В этой теме нет новых непрочитанных сообщений. Влюблённые женщины [01-12 из 12] (Дмитрий Лактионов) [Мелодрама, 2015] HDTVRip

Dracon

1738 | 823

8.67 ГБ

В этой теме нет новых непрочитанных сообщений. Влюблённые женщины [01-12 из 12] (Дмитрий Лактионов) [Мелодрама, 2015] HDTV 1080i

Dracon

159 | 118

26.18 ГБ

В этой теме нет новых непрочитанных сообщений. Влюблённые / Dilwale [мюзикл, боевик, драма. 2015] HDRip, Mvo

salma3

144 | 7

2.19 ГБ


Начать новую тему Ответить на тему  [ 1 сообщение ] 




Для Мосгорсуда, Роскомнадзора и рекламодателей:: mosgorsud-torrent[собачка]yandex.ru