Торрент файл
скачать торрент магнет ссылка Добавлен: 15 дек 2011, 16:29
Размер: 4.34 ГБ
Сидеров: 101
Личеров: 15
Автор

СообщениеДобавлено: 15 дек 2011, 16:29 

Не в сети
Супермодератор
Аватара пользователя
Дата регистрации:
11 апр 2010, 18:10
Спасибо: 5799 / 7
Сообщения: 56779
Ночной дозор, Дневной дозор (Дилогия)



Ночной дозор


Перевод: Не требуется, cубтитры: отсутствуют
Формат: HDRip-AVC, МКV, H264, AC3
Страна: Россия
Режиссер: Тимур Бекмамбетов
Жанр: Фентези, боевик
Продолжительность: 01:54:00
Год выпуска: 2004
В ролях: Константин Хабенский, Владимир Меньшов, Валерий Золотухин, Мария Порошина, Галина Тюнина, Гоша Куценко, Алексей Чадов, Жанна Фриске, Илья Лагутенко, Виктор Вержбицкий

Описание: Все знают, что на ночных улицах опасно. Но в данном случае речь идет не о преступниках и маньяках. Когда наступает ночь, и силы Зла властвуют безраздельно, можно столкнуться с теми, с кем не встретишься днем — темными магами, вампирами и прочей нечистью. Их сила столь велика, что справиться с ними обычным оружием невозможно.

Но по следу «ночных охотников» идут те, кто веками сражается с порождениями сумрака и побеждает их, неукоснительно соблюдая при этом Договор, заключенный тысячелетия тому назад между Светлыми и Темными… Имя им — Ночной Дозор. Их предназначение — сохранение равновесия между Добром и Злом, нарушение которого вызывает разрушения, войны, революции, вселенские катастрофы.

Каждый плохой человеческий поступок — измена, предательство, убийство, равно, как и хороший, ложится на чашу весов, перевешивая их то в одну, то в другую сторону. Именно поэтому и силы Света, и силы Тьмы вынуждены существовать в двух мирах: реальном и потустороннем, пытаясь либо подтолкнуть человека к греху, либо отвратить от него…




Видео: 1280x688 (1.86:0), 23,976 кадр/сек, AVC_H264, 2349 Кбит/сек, High@L4.1, 0.106 bit/ pixel
Аудио: 48 КГц, АС-3, 6 ch (Front: L C R, Side: L R, LFE), 384 Кбит/сек








Общее
Уникальный идентификатор: 224047824650925606941117825796897501058 (0xA88E0A9C4555FA39AFB446CB37C7EF82)
Полное имя: C:\Users\Арина\Videos\Дозоры\nochnoi_dozor_1_2_[tfile.ru]\Дневной дозор.mkv
Формат: Matroska
Размер файла: 2,17 Гбайт
Продолжительность: 2 ч. 25 м.
Общий поток: 2135 Кбит/сек
Название фильма: Rip by Romeo [NOLIMITS-TEAM.RU]
Дата кодирования: UTC 2011-01-14 19:45:49
Программа кодирования: mkvmerge v3.0.0 ('Hang up your Hang-Ups') built on Dec 12 2009 15:20:35
Библиотека кодирования: libebml v0.7.9 + libmatroska v0.8.1

Видео
Идентификатор: 1
Формат: AVC
Формат/Информация: Advanced Video Codec
Профиль формата: High@L4.1
Параметр CABAC формата: Да
Параметр ReFrames формата: 3 кадры
Параметры GOP формата: M=4, N=24
Идентификатор кодека: V_MPEG4/ISO/AVC
Продолжительность: 2 ч. 25 м.
Вид битрейта: Переменный
Битрейт: 1770 Кбит/сек
Максимальный битрейт: 17,5 Мбит/сек
Ширина: 1280 пикс.
Высота: 544 пикс.
Соотношение сторон: 2,35:1
Соотношение сторон в оригинале: 2,35:1
Частота кадров: 23,976 кадр/сек
Цветовое пространство: YUV
Подвыборка цветности: 4:2:0
Битовая глубина: 8 бит
Тип развёртки: Прогрессивная
Бит/(Пиксели*Кадры): 0.106
Размер потока: 1,74 Гбайт (80%)
Заголовок: Дневной Дозор.[nolimits-team.ru]
Библиотека кодирования: x264 core 108 r1788 c764e29
Настройки программы: cabac=1 / ref=1 / deblock=1:0:0 / analyse=0x3:0x3 / me=dia / subme=1 / psy=1 / psy_rd=0.00:0.00 / mixed_ref=0 / me_range=16 / chroma_me=1 / trellis=0 / 8x8dct=1 / cqm=0 / deadzone=21,11 / fast_pskip=1 / chroma_qp_offset=0 / threads=6 / sliced_threads=0 / slices=4 / nr=0 / decimate=1 / interlaced=0 / constrained_intra=0 / bframes=3 / b_pyramid=1 / b_adapt=1 / b_bias=0 / direct=1 / weightb=1 / open_gop=0 / weightp=0 / keyint=24 / keyint_min=1 / scenecut=40 / intra_refresh=0 / rc_lookahead=0 / rc=abr / mbtree=0 / bitrate=1770 / ratetol=1.0 / qcomp=0.60 / qpmin=0 / qpmax=51 / qpstep=4 / vbv_maxrate=17500 / vbv_bufsize=14500 / ip_ratio=1.10 / pb_ratio=1.10 / aq=1:1.00 / nal_hrd=vbr
Язык: Russian

Аудио
Идентификатор: 2
Формат: AC-3
Формат/Информация: Audio Coding 3
Расширение режима: CM (complete main)
Идентификатор кодека: A_AC3
Продолжительность: 2 ч. 25 м.
Вид битрейта: Постоянный
Битрейт: 384 Кбит/сек
Канал(ы): 6 канала(ов)
Расположение каналов: Front: L C R, Side: L R, LFE
Частота: 48,0 КГц
Битовая глубина: 16 бит
Метод сжатия: С потерями
Размер потока: 400 Мбайт (18%)
Заголовок: Оригинал
Язык: Russian



Дневной дозор

Перевод: Не требуется, cубтитры: отсутствуют
Формат: HDRip-AVC, МКV, H264, AC3
Страна: Россия
Режиссер: Тимур Бекмамбетов
Жанр: Фентези, боевик
Продолжительность: 02:25:00
Год выпуска: 2005
В ролях: Константин Хабенский, Мария Порошина, Владимир Меньшов, Галина Тюнина, Виктор Вержбицкий, Жанна Фриске, Дмитрий Мартынов, Валерий Золотухин, Алексей Чадов, Нуржуман Ихтымбаев

Описание: Ночью в подъезде своего дома убита молодая женщина. На теле не обнаружено никаких следов насилия… Зыбкое равновесие между Светлыми и Темными нарушено. И чаша весов склоняется в сторону Темных. Но убитая — Темная иная, а значит подозрение падает на Светлых.

Гессер срочно собирает команду: обвинение в убийстве — серьезная проблема. Он обязан реагировать. И, прежде всего, понять кто где был и чем занимался в указанное Темными время. Выясняется, что алиби отсутствует только у Городецкого…




Видео: 1280x544 (2,35:1), 23,976 кадр/сек, AVC_H264, 1770 Кбит/сек, High@L4.1, 0.106 bit/ pixel
Аудио: 48 КГц, АС-3, 6 ch (Front: L C R, Side: L R, LFE), 384 Кбит/сек







Общее
Уникальный идентификатор: 224047824650925606941117825796897501058 (0xA88E0A9C4555FA39AFB446CB37C7EF82)
Полное имя: C:\Users\Арина\Videos\Дозоры\nochnoi_dozor_1_2_[tfile.ru]\Дневной дозор.mkv
Формат: Matroska
Размер файла: 2,17 Гбайт
Продолжительность: 2 ч. 25 м.
Общий поток: 2135 Кбит/сек
Название фильма: Rip by Romeo [NOLIMITS-TEAM.RU]
Дата кодирования: UTC 2011-01-14 19:45:49
Программа кодирования: mkvmerge v3.0.0 ('Hang up your Hang-Ups') built on Dec 12 2009 15:20:35
Библиотека кодирования: libebml v0.7.9 + libmatroska v0.8.1

Видео
Идентификатор: 1
Формат: AVC
Формат/Информация: Advanced Video Codec
Профиль формата: High@L4.1
Параметр CABAC формата: Да
Параметр ReFrames формата: 3 кадры
Параметры GOP формата: M=4, N=24
Идентификатор кодека: V_MPEG4/ISO/AVC
Продолжительность: 2 ч. 25 м.
Вид битрейта: Переменный
Битрейт: 1770 Кбит/сек
Максимальный битрейт: 17,5 Мбит/сек
Ширина: 1280 пикс.
Высота: 544 пикс.
Соотношение сторон: 2,35:1
Соотношение сторон в оригинале: 2,35:1
Частота кадров: 23,976 кадр/сек
Цветовое пространство: YUV
Подвыборка цветности: 4:2:0
Битовая глубина: 8 бит
Тип развёртки: Прогрессивная
Бит/(Пиксели*Кадры): 0.106
Размер потока: 1,74 Гбайт (80%)
Заголовок: Дневной Дозор.[nolimits-team.ru]
Библиотека кодирования: x264 core 108 r1788 c764e29
Настройки программы: cabac=1 / ref=1 / deblock=1:0:0 / analyse=0x3:0x3 / me=dia / subme=1 / psy=1 / psy_rd=0.00:0.00 / mixed_ref=0 / me_range=16 / chroma_me=1 / trellis=0 / 8x8dct=1 / cqm=0 / deadzone=21,11 / fast_pskip=1 / chroma_qp_offset=0 / threads=6 / sliced_threads=0 / slices=4 / nr=0 / decimate=1 / interlaced=0 / constrained_intra=0 / bframes=3 / b_pyramid=1 / b_adapt=1 / b_bias=0 / direct=1 / weightb=1 / open_gop=0 / weightp=0 / keyint=24 / keyint_min=1 / scenecut=40 / intra_refresh=0 / rc_lookahead=0 / rc=abr / mbtree=0 / bitrate=1770 / ratetol=1.0 / qcomp=0.60 / qpmin=0 / qpmax=51 / qpstep=4 / vbv_maxrate=17500 / vbv_bufsize=14500 / ip_ratio=1.10 / pb_ratio=1.10 / aq=1:1.00 / nal_hrd=vbr
Язык: Russian

Аудио
Идентификатор: 2
Формат: AC-3
Формат/Информация: Audio Coding 3
Расширение режима: CM (complete main)
Идентификатор кодека: A_AC3
Продолжительность: 2 ч. 25 м.
Вид битрейта: Постоянный
Битрейт: 384 Кбит/сек
Канал(ы): 6 канала(ов)
Расположение каналов: Front: L C R, Side: L R, LFE
Частота: 48,0 КГц
Битовая глубина: 16 бит
Метод сжатия: С потерями
Размер потока: 400 Мбайт (18%)
Заголовок: Оригинал
Язык: Russian

Поделиться:




реклама партнёра


Вернуться к началу
 Профиль Отправить личное сообщение  
 
   Похожие торренты   Автор   Торрент   Размер 
В этой теме нет новых непрочитанных сообщений. Ёлки 1914 (Ольга Харина, Тимур Бекмамбетов, Заур Засеев) [Комедия, 2014] HDRip

Dracon

225 | 6

1.46 ГБ

В этой теме нет новых непрочитанных сообщений. Хеллбой: Дилогия / Hellboy: Dilogy [фантастика, фэнтези, боевик, 2004-2008] BDRip 720p, Dub+Mvo+3Avo

salma3

31 | 13

23.05 ГБ

В этой теме нет новых непрочитанных сообщений. Ёлки 1914 (Ольга Харина, Тимур Бекмамбетов, Заур Засеев) [Комедия, 2014] CAMRip

Dracon

69 | 5

1.36 ГБ

В этой теме нет новых непрочитанных сообщений. Ёлки 1914 (Ольга Харина, Тимур Бекмамбетов, Заур Засеев) [Комедия, 2014] Blu-Ray [Лицензия]

Dracon

1 | 5

16.74 ГБ

В этой теме нет новых непрочитанных сообщений. Ёлки 1914 (Ольга Харина, Тимур Бекмамбетов, Заур Засеев) [Комедия, 2014] BDRemux 1080p [Лицензия]

Dracon

4 | 5

15.87 ГБ

В этой теме нет новых непрочитанных сообщений. Ёлки 1914 (Ольга Харина, Тимур Бекмамбетов, Заур Засеев) [Комедия, 2014] BDRip 720p [Лицензия]

Dracon

1153 | 14

3.56 ГБ

В этой теме нет новых непрочитанных сообщений. Ёлки 1914 (Ольга Харина, Тимур Бекмамбетов, Заур Засеев) [Комедия, 2014] BDRip 1080p [Лицензия]

Dracon

468 | 8

6.7 ГБ


Начать новую тему Ответить на тему  [ 1 сообщение ] 




Для Мосгорсуда, Роскомнадзора и рекламодателей:: mosgorsud-torrent[собачка]yandex.ru