Торрент файл
скачать торрент магнет ссылка Добавлен: 15 дек 2011, 16:22
Размер: 1.47 ГБ
Сидеров: 5
Личеров: 6
Автор

СообщениеДобавлено: 15 дек 2011, 16:22 

Не в сети
Супермодератор
Аватара пользователя
Дата регистрации:
11 апр 2010, 18:10
Спасибо: 5799 / 7
Сообщения: 56779
Прячься!



Формат: DVDRip-AVC, MKV, H.264, AVC, AC3
Режиссер: Джонни О`Рейли

Жанр: триллер
Продолжительность: 01:19:52
Год выпуска: 2010

В ролях: Сергей Гармаш, Алексей Гуськов, Петр Логачев, Антон Шагин, Марина Александрова, Егор Пазенко, Сергей Юшкевич, Владимир Гусев

Описание: На затерянной высоко в горах метеостанции несут службу несколько человек. Однажды они перестают выходить на связь, руководство высылает на станцию спасателей, которые находят распахнутые настежь двери, еще теплые угли в котельной, неработающую радиостанцию — и никого.
Подозреваются все, кто находился на станции: двое метеорологов с безупречным послужным списком и странными увлечениями: один помешан на поисках снежного человека, другой часами просиживает над сооружением из спичек копий памятников архитектуры; их помощник 19-летний Ромаш, умеющий исчезать и прятаться так, что никто не может найти; а так же появившиеся накануне в окрестностях станции двое спелеологов-любителей: красавица Ирина и ее муж Вадим.


Рейтинг на:

Видео: 720x320 (2,25:1), 25 fps, H264, AVC, MPEG4 ~2 628 kbps avg, 0,38 bit/pixel
Аудио: 48 kHz, AC3 Dolby Digital, 3/2 (L,C,R,l,r) + 6 ch, ~448 kbps avg

[General
Complete name: J:\Мои релизы\Все релизы\Prachsa_[tfile.ru].mkv
Format: Matroska
File size: 1.47 GiB
Duration: 1h 19mn
Overall bit rate: 2 628 Kbps
Encoded date: UTC 2010-09-30 15:45:58
Writing application: mkvmerge v3.2.0 ('Beginnings') built on Feb 12 2010 16:46:17
Writing library: libebml v0.7.9 + libmatroska v0.8.1

Video
ID: 1
Format: AVC
Format/Info: Advanced Video Codec
Format profile: High@L1.3
Format settings, CABAC: Yes
Format settings, ReFrames: 6 frames
Muxing mode: Container profile=Unknown@1.3
Codec ID: V_MPEG4/ISO/AVC
Duration: 1h 19mn
Bit rate: 2 128 Kbps
Nominal bit rate: 2 179 Kbps
Width: 720 pixels
Height: 320 pixels
Display aspect ratio: 2.25
Frame rate: 25.000 fps
Resolution: 24 bits
Colorimetry: 4:2:0
Scan type: Progressive
Bits/(Pixel*Frame): 0.369
Stream size: 1.19 GiB (81%)
Writing library: x264 core 80 r1378+57 6f6b50a
Encoding settings: cabac=1 / ref=6 / deblock=1:0:0 / analyse=0x3:0x113 / me=hex / subme=7 / psy=1 / psy_rd=1.0:0.0 / mixed_ref=1 / me_range=16 / chroma_me=1 / trellis=1 / 8x8dct=1 / cqm=0 / deadzone=21,11 / fast_pskip=1 / chroma_qp_offset=-2 / threads=6 / sliced_threads=0 / nr=0 / decimate=1 / mbaff=0 / constrained_intra=0 / bframes=5 / b_pyramid=0 / b_adapt=1 / b_bias=0 / direct=1 / wpredb=1 / wpredp=2 / keyint=250 / keyint_min=25 / scenecut=40 / rc_lookahead=40 / rc=2pass / mbtree=1 / bitrate=2179 / ratetol=1.0 / qcomp=0.60 / qpmin=10 / qpmax=51 / qpstep=4 / cplxblur=20.0 / qblur=0.5 / ip_ratio=1.40 / aq=1:1.00

Audio
ID: 2
Format: AC-3
Format/Info: Audio Coding 3
Codec ID: A_AC3
Duration: 1h 19mn
Bit rate mode: Constant
Bit rate: 448 Kbps
Channel(s): 6 channels
Channel positions: Front: L C R, Surround: L R, LFE
Sampling rate: 48.0 KHz
Stream size: 256 MiB (17%)











Поделиться:




реклама партнёра


Вернуться к началу
 Профиль Отправить личное сообщение  
 
   Похожие торренты   Автор   Торрент   Размер 
В этой теме нет новых непрочитанных сообщений. Беги, Джонни / Bhaag Johnny [Боевик, триллер, 2015] DVDRip, Mvo [SDI Media]

salma3

39 | 8

1.37 ГБ

В этой теме нет новых непрочитанных сообщений. Прячься, бабушка! Мы едем / To Grandmother's House We Go [комедия, приключения, семейный, 1992] DVDRip, Mvo

salma3

44 | 3

1.21 ГБ

В этой теме нет новых непрочитанных сообщений. Месть / Возмездие / Fuk sau / Vengeance (Джонни То / Johnnie To) [2009г., боевик, триллер, драма, криминал, BDRip-AVC] AVO

Alfredovich

15 | 3

2.35 ГБ

В этой теме нет новых непрочитанных сообщений. Москва никогда не спит (Джонни О Райлли) [драма, комедия, триллер, 2015] WEB-DL 1080p [iTunes]

Dracon

21 | 1

3.34 ГБ

В этой теме нет новых непрочитанных сообщений. Москва никогда не спит (Джонни О Райлли) [драма, комедия, триллер, 2015] WEB-DL 720p [iTunes]

Dracon

92 | 5

3.1 ГБ

В этой теме нет новых непрочитанных сообщений. Москва никогда не спит (Джонни О Райлли) [драма, комедия, триллер, 2015] WEB-DLRip [iTunes]

Dracon

45 | 2

1.46 ГБ

В этой теме нет новых непрочитанных сообщений. Джонни, будь хорошим / Johnny Be Good [Комедия, 1988] HDTVRip, Dvo

salma3

18 | 4

1.45 ГБ


Начать новую тему Ответить на тему  [ 1 сообщение ] 




Для Мосгорсуда, Роскомнадзора и рекламодателей:: mosgorsud-torrent[собачка]yandex.ru