Торрент файл
скачать торрент магнет ссылка Добавлен: 15 дек 2011, 16:18
Размер: 1.46 ГБ
Сидеров: 2
Личеров: 6
Автор

СообщениеДобавлено: 15 дек 2011, 16:18 

Не в сети
Супермодератор
Аватара пользователя
Дата регистрации:
11 апр 2010, 18:10
Спасибо: 5798 / 7
Сообщения: 56779
Таинственный остров



Формат: DVDRip-AVC, MKV, H.264, AC3
Страна: Украина
Режиссер: Владимир Тихий
Жанр: триллер
Продолжительность: 01:29:38
Год выпуска: 2008

В ролях: Евгений Стычкин, Нелли Уварова, Богдан Бенюк, Владимир Николаенко, Анна Александрович, Юрий Высоцкий, Максим Никитин

Описание: Преуспевающий бизнесмен Максим со спокойной душой отпускает свою жену — известную журналистку — в очередную командировку в богом забытую деревушку. Там, на острове, в советское время было создано секретное НИИ, ученые которого вели разработки «Витамина счастья» и стремились создать человека будущего. После развала Союза, НИИ было законсервировано и все эксперименты были прекращены. Но люди, попадающие в эти края, продолжали пропадать. По прошествии двух недель Максим получает письмо от жены с текстом: «Не ищи меня! Я нашла свое счастье». Ошарашенный таким поворотом событий, главный герой забрасывает все дела и отправляется на поиски. Добравшись до деревни и пообщавшись с местными жителями, Максим начинает понимать, что тут творится какая-то чертовщина.



Видео: 720x576 (5:4), 25 fps, AVC (x264) Main@L3.0~ 2072 kbps, 0.20 bit/pixel

Аудио: 48 kHz, AC3 Dolby Digital, 3/2 (L,C,R,l,r) + LFE ch, ~192 kbps

General
Format : Matroska
File size : 1.46 GiB
Duration : 1h 30mn
Overall bit rate : 2 310 Kbps
Encoded date : UTC 2009-03-18 19:39:34
Writing application : mkvmerge v2.4.0 ('Fumbling Towards Ecstasy') built on Oct 11 2008 20:13:15
Writing library : libebml v0.7.7 + libmatroska v0.8.1
Video #1
ID : 1
Format : AVC
Format/Info : Advanced Video Codec
Format profile : Main@L3.0
Format settings, CABAC : Yes
Format settings, ReFrames : 3 frames
Muxing mode : Container profile=Unknown@3.0
Codec ID : V_MPEG4/ISO/AVC
Duration : 1h 30mn
Bit rate : 2 072 Kbps
Nominal bit rate : 2 115 Kbps
Width : 720 pixels
Height : 576 pixels
Display aspect ratio : 16:9
Original display aspect ratio : 5:4
Frame rate : 25.000 fps
Standard : PAL
Resolution : 8 bits
Colorimetry : 4:2:0
Scan type : Progressive
Bits/(Pixel*Frame) : 0.200
Stream size : 1.31 GiB (90%)
Writing library : x264 core 65 r999kMod cc51047
Encoding settings : cabac=1 / ref=3 / deblock=1:-2:-1 / analyse=0x1:0x131 / me=umh / subme=8 / psy_rd=1.0:0.0 / mixed_ref=1 / me_range=16 / chroma_me=1 / trellis=2 / 8x8dct=0 / cqm=0 / deadzone=21,11 / chroma_qp_offset=-2 / threads=2 / thread_queue=2 / nr=0 / decimate=0 / mbaff=0 / bframes=3 / b_pyramid=0 / b_adapt=1 / b_bias=0 / direct=3 / wpredb=1 / keyint=250 / keyint_min=25 / scenecut=40(pre) / rc=2pass / bitrate=2115 / ratetol=1.0 / qcomp=0.60 / qpmin=10 / qpmax=51 / qpstep=4 / cplxblur=20.0 / qblur=0.5 / ip_ratio=1.40 / pb_ratio=1.30 / aq=1:1.00
Audio #2
ID : 2
Format : AC-3
Format/Info : Audio Coding 3
Codec ID : A_AC3
Duration : 1h 30mn
Bit rate mode : Constant
Bit rate : 192 Kbps
Channel(s) : 2 channels
Channel positions : L R
Sampling rate : 48.0 KHz
Stream size : 124 MiB (8%)






Поделиться:




реклама партнёра


Вернуться к началу
 Профиль Отправить личное сообщение  
 
   Похожие торренты   Автор   Торрент   Размер 
В этой теме нет новых непрочитанных сообщений. Дьявольский остров / Devil`s Pond [Триллер, драма, 2003] DVDRip-AVC, Mvo

salma3

72 | 8

2.05 ГБ

В этой теме нет новых непрочитанных сообщений. Дьявольский остров / Devil`s Pond [Триллер, драма, 2003] DVDRip, Mvo

salma3

105 | 7

1.45 ГБ

В этой теме нет новых непрочитанных сообщений. Таинственный путь / Mystery Road [триллер, детектив, 2013 ] HDRip, Avo

salma3

259 | 128

2.11 ГБ

В этой теме нет новых непрочитанных сообщений. Тихий приют / Silent Retreat [ужасы, триллер, детектив, 2016] HDRip, Avo

salma3

0 | 0

1.45 ГБ

В этой теме нет новых непрочитанных сообщений. Остров смерти / The Paradise Virus [триллер, драма, семейный, 2003] DVDRip, Mvo

salma3

17 | 3

690.3 МБ

В этой теме нет новых непрочитанных сообщений. Таинственный путь / Mystery Road [триллер, детектив, 2013] BDRip 1080p, Avo

salma3

22 | 3

10 ГБ

В этой теме нет новых непрочитанных сообщений. Нападение на Остров Дьявола / Assault on Devil's Island [боевик, триллер, приключения, 1997] DVDRip, Mvo

salma3

20 | 5

1.37 ГБ


Начать новую тему Ответить на тему  [ 1 сообщение ] 




Для Мосгорсуда, Роскомнадзора и рекламодателей:: mosgorsud-torrent[собачка]yandex.ru